Чужаки / Незваные гости / Uninvited (Майкл Дерек Бохуш / Michael Derek Bohusz) [1993, США, ужасы, вестерн, DVDRip] AVO (Вартан Дохалов)

Reply to topic
DL-List and Torrent activity
Size:  1.37 GB   |    Registered:  3 years 1 month   |    Completed:  16 times

Seeder not seen: Never

 
   
 
 
Author Message

erzsebet.org ®

Longevity: 3 years 1 month

Posts: 47596

Post 02-Dec-2017 17:17

[Quote]

Чужаки / Незваные гости / Uninvited
«In the blink of an eye, the madness begins»
Страна: США
Жанр: ужасы, вестерн
Год выпуска: 1993
Продолжительность: 01:30:20
Перевод: Авторский (одноголосый закадровый) Вартан Дохалов
Субтитры: нет
Режиссер: Майкл Дерек Бохуш / Michael Derek Bohusz
В ролях: Джек Элам, Кристофер Бойер, Бари Бакнер, Джерри Ректор, Зейн Паоло, Дэннис Гиббс, Тэд Хэйлер, Eno Brutto, Эрин Ноубл
Описание: Святоша, стремящийся построить церковь, парочка влюблённых, мечтающих о счастливой жизни, проститутка, пытающаяся вырваться из своего порочного круга — у всех у них есть одно общее желание: жажда денег. Деньги спрятаны в недрах одной мрачной горы, но у позарившихся на них гораздо больше шансов умереть, чем прибрать к рукам эти сокровища.
Доп. информация: Дорожка с В. Дохаловым синхронизирована и наложена ale_x2008 при помощи Sony Vegas и VirtualDubMod.
За оцифрованную с VHS дорожку благодарим - RoxMarty
Релиз
Сэмпл: https://yadi.sk/i/cCz1TefT3PfSjb
Качество видео: DVDRip
Формат видео: AVI
Видео: XviD build 73, 704x384 (1.83:1), 23.976 fps, 1965 kbps avg, 0.30 bit/pixel
Аудио: AC3 Dolby Digital, 48000Hz, 2/0 (L,R) ch (mono), 192.00 kbps avg

MediaInfo

Незваные гости - Uninvited [by ale_x2008].avi
Format : AVI
Format/Info : Audio Video Interleave
File size : 1.37 GiB
Duration : 1 h 30 min
Overall bit rate : 2 167 kb/s
Movie name : Незваные гости - Uninvited [by ale_x2008]
Director : by ale_x2008
Writing application : VirtualDubMod 1.5.10.2 (build 2540/release)
Copyright : Edich2
Comment : erzsebet.org
Video
ID : 0
Format : MPEG-4 Visual
Format profile : Advanced [email protected]
Format settings, BVOP : 1
Format settings, QPel : No
Format settings, GMC : No warppoints
Format settings, Matrix : Default (MPEG)
Codec ID : XVID
Codec ID/Hint : XviD
Duration : 1 h 30 min
Bit rate : 1 966 kb/s
Width : 704 pixels
Height : 384 pixels
Display aspect ratio : 1.85:1
Frame rate : 23.976 (24000/1001) FPS
Color space : YUV
Chroma subsampling : 4:2:0
Bit depth : 8 bits
Scan type : Progressive
Compression mode : Lossy
Bits/(Pixel*Frame) : 0.303
Stream size : 1.24 GiB (91%)
Writing library : XviD 73
Audio
ID : 1
Format : AC-3
Format/Info : Audio Coding 3
Format settings, Endianness : Big
Codec ID : 2000
Duration : 1 h 30 min
Bit rate mode : Constant
Bit rate : 192 kb/s
Channel(s) : 2 channels
Channel positions : Front: L R
Sampling rate : 48.0 kHz
Frame rate : 31.250 FPS (1536 spf)
Bit depth : 16 bits
Compression mode : Lossy
Stream size : 124 MiB (9%)
Alignment : Split accross interleaves
Interleave, duration : 42 ms (1.00 video frame)
Interleave, preload duratio : 500 ms
Service kind : Complete Main

Скриншоты


If your ratio falls below 0.3, you will not be able to download Torrents! More about the rating.

[erzsebet.pl].t696.torrent
Torrent: Registered [ 2017-12-02 17:17 ] · 9559E97E2A3463CCCB9084026C08131B6551B276

Download .torrent

Download

14 KB

Status: checked
Completed: 16 times
Size: 1.37 GB
terms.php
[Profile] [PM]
Display posts:    
Reply to topic

Current time is: 18-Jan 23:43

All times are UTC ± 0



You cannot post new topics in this forum
You cannot reply to topics in this forum
You cannot edit your posts in this forum
You cannot delete your posts in this forum
You cannot vote in polls in this forum
You cannot attach files in this forum
You can download files in this forum