Последний человек / Le Dernier Homme (Шарль Битш / Charles L. Bitsch) [1969, Франция, постапокалипсис, драма, VHSRip] VO (allecs2010)

Reply to topic
DL-List and Torrent activity
Size:  695 MB   |    Registered:  3 years 1 month   |    Completed:  16 times

Seeder not seen: Never

 
   
 
 
Author Message

erzsebet.org ®

Longevity: 3 years 1 month

Posts: 47596

Post 02-Dec-2017 17:12

[Quote]

Последний человек / Le Dernier Homme
Страна: Франция
Жанр: постапокалипсис, драма
Год выпуска: 1969
Продолжительность: 01:20:09
-
Перевод: Одноголосый закадровый allecs2010 по субтитрам steelhawk
Субтитры: нет
-
Режиссер: Шарль Битш / Charles L. Bitsch
В ролях: Жан-Клод Буллон, Sofia Torkeli, Корина Брилл, Christian Cerland
-
Описание: Поднявшись на поверхность, трое спелеологов обнаруживают, что все их товарищи в лагере погибли. После краткого расследования выясняется, что та же участь постигла и всё остальное население Земли. Еве, Катрин и её мужу Жан-Клоду предстоит выжить в изменившемся мире и противостоять опасностям. Голод им пока не грозит, но дурной характер Жан-Клода ставит маленькую группу на грань выживания.
-
Доп. информация:
Видео http://erzsebet.org/forum/viewtopic.php?t=4404496
-
Сэмпл: http://sendfile.su/1372543
-
Качество видео: VHSRip
Формат видео: AVI
Видео: Xvid, 704x432, 1.630, 947 Kbps, 25.000 fps
Аудио: 48 kHz, MPEG Layer 3, 2 ch, ~256.00 kbps avg

MediaInfo

General
Complete name : C:\Users\ALEX\Desktop\Фильмы\Le dernier homme.1969.RUS.VHSRip.XviD.MPEG Audio.avi
Format : AVI
Format/Info : Audio Video Interleave
File size : 695 MiB
Duration : 1 h 20 min
Overall bit rate : 1 212 kb/s
Writing application : VirtualDubMod 1.5.10.2 (build 2542/release)
Writing library : VirtualDubMod build 2542/release
Video
ID : 0
Format : MPEG-4 Visual
Format settings : BVOP / Custom Matrix
Format settings, BVOP : Yes
Format settings, QPel : No
Format settings, GMC : No warppoints
Format settings, Matrix : Custom
Codec ID : XVID
Codec ID/Hint : XviD
Duration : 1 h 20 min
Bit rate : 947 kb/s
Width : 704 pixels
Height : 432 pixels
Display aspect ratio : 16:10
Frame rate : 25.000 FPS
Color space : YUV
Chroma subsampling : 4:2:0
Bit depth : 8 bits
Scan type : Progressive
Compression mode : Lossy
Bits/(Pixel*Frame) : 0.125
Stream size : 543 MiB (78%)
Audio
ID : 1
Format : MPEG Audio
Format version : Version 1
Format profile : Layer 3
Codec ID : 55
Codec ID/Hint : MP3
Duration : 1 h 20 min
Bit rate mode : Constant
Bit rate : 256 kb/s
Channel(s) : 2 channels
Sampling rate : 48.0 kHz
Compression mode : Lossy
Stream size : 147 MiB (21%)
Alignment : Aligned on interleaves
Interleave, duration : 40 ms (1.00 video frame)
Interleave, preload duratio : 504 ms

Скриншоты

If your ratio falls below 0.3, you will not be able to download Torrents! More about the rating.

[erzsebet.pl].t697.torrent
Torrent: Registered [ 2017-12-02 17:13 ] · B1CF50F2A06ED4F84046BDB2348F2959672F7EF2

Download .torrent

Download

14 KB

Status: checked
Completed: 16 times
Size: 695 MB
terms.php
[Profile] [PM]
Display posts:    
Reply to topic

Current time is: 23-Jan 23:54

All times are UTC ± 0



You cannot post new topics in this forum
You cannot reply to topics in this forum
You cannot edit your posts in this forum
You cannot delete your posts in this forum
You cannot vote in polls in this forum
You cannot attach files in this forum
You can download files in this forum