Веселенькие деньки на самом Диком Западе / Как было здорово на Западе / How the West Was Fun (Стюарт Марголин / Stuart Margolin) [1994, США, Комедия, Семейный, DVDRip] AVO (Павел Санаев) + (Сергей Визгунов)

Reply to topic
DL-List and Torrent activity
Size:  1.42 GB   |    Registered:  3 years 1 month   |    Completed:  16 times

Seeder not seen: 2 years 5 months

 
   
 
 
Author Message

erzsebet.org ®

Longevity: 3 years 1 month

Posts: 47596

Post 02-Dec-2017 17:17

[Quote]

Веселенькие деньки на самом Диком Западе / Как было здорово на Западе / How the West Was Fun
Страна: США
Жанр: Комедия, Семейный
Год выпуска: 1994
Продолжительность: 01:34:50
Перевод: Авторский (одноголосый закадровый) Павел Санаев
Перевод 2: Авторский (одноголосый закадровый) Сергей Визгунов
Субтитры: нет
Режиссер: Стюарт Марголин / Stuart Margolin
В ролях: Мэри-Кейт Олсен, Эшли Олсен, Мартин Мулл, Мишель Грин, Патрик Кэссиди, Бен Кардинал, Леон Паунолл, Пег Филлипс, Уэс Триттер, Хизер Ли МакКэллам, Шон Джонстон, Дэниэл Либман
Описание: Две сестры-двойняшки приезжают вместе с отцом (мама умерла три года назад) в отпуск к тете Нэдди на "гостевое" ранчо на бывшем Диком Западе, расположенное в изумительно красивой местности. Девочки узнают, что сын тети Нэдди хочет продать ранчо и для этого тайно от матери отказывает всем клиентам. Угрожая банкротством, он нашел подходящего покупателя, но девочки разрушили все его подлые планы.
Доп. информация: Дорожка с П. Санаевым синхронизирована и наложена ale_x2008 при помощи Sony Vegas и VirtualDubMod.
За оцифрованную с VHS дорожку благодарим - alenavova
Дорожка с С. Визгуновым ремастерирована, синхронизирована и наложена ale_x2008 при помощи iZotope RX2, Adobe Audition, Sony Vegas и VirtualDubMod.
За оцифрованную с VHS дорожку благодарим - alenavova.
P.S. 00:38:42 - 00:40:11 - вставка с переводом MVO.

Релиз
Сэмпл: https://yadi.sk/i/Sbb6i0c73PdL75
Качество видео: DVDRip [DVD5 IVH]
Формат видео: AVI
Видео: 640x480 (1.33:1), 23.976 fps, XviD build 73 ~1800 kbps avg, 0.24 bit/pixel
Аудио: AC3 Dolby Digital, 48000Hz, 2/0 (L,R) ch (stereo), 192.00 kbps avg
Аудио 2: AC3 Dolby Digital, 48000Hz, 2/0 (L,R) ch (stereo), 192.00 kbps avg

MediaInfo

Как было здорово на Западе - How the West Was Fun [by ale_x2008] fix.avi
Format : AVI
Format/Info : Audio Video Interleave
File size : 1.42 GiB
Duration : 1 h 32 min
Overall bit rate : 2 199 kb/s
Movie name : Как было здорово на Западе - How the West Was Fun [by ale_x2008] fix
Director : by ale_x2008
Writing application : VirtualDubMod 1.5.10.2 (build 2540/release)
Copyright : Edich2
Comment : erzsebet.org
Video
ID : 0
Format : MPEG-4 Visual
Format profile : Advanced [email protected]
Format settings, BVOP : 2
Format settings, QPel : No
Format settings, GMC : No warppoints
Format settings, Matrix : Custom
Codec ID : XVID
Codec ID/Hint : XviD
Duration : 1 h 32 min
Bit rate : 1 801 kb/s
Width : 640 pixels
Height : 480 pixels
Display aspect ratio : 4:3
Frame rate : 23.976 (24000/1001) FPS
Color space : YUV
Chroma subsampling : 4:2:0
Bit depth : 8 bits
Scan type : Progressive
Compression mode : Lossy
Bits/(Pixel*Frame) : 0.245
Stream size : 1.16 GiB (82%)
Writing library : XviD 73
Audio #1
ID : 1
Format : AC-3
Format/Info : Audio Coding 3
Format settings, Endianness : Big
Codec ID : 2000
Duration : 1 h 32 min
Bit rate mode : Constant
Bit rate : 192 kb/s
Channel(s) : 2 channels
Channel positions : Front: L R
Sampling rate : 48.0 kHz
Frame rate : 31.250 FPS (1536 spf)
Bit depth : 16 bits
Compression mode : Lossy
Stream size : 127 MiB (9%)
Alignment : Split accross interleaves
Interleave, duration : 42 ms (1.00 video frame)
Interleave, preload duratio : 500 ms
Service kind : Complete Main
Audio #2
ID : 2
Format : AC-3
Format/Info : Audio Coding 3
Format settings, Endianness : Big
Codec ID : 2000
Duration : 1 h 32 min
Bit rate mode : Constant
Bit rate : 192 kb/s
Channel(s) : 2 channels
Channel positions : Front: L R
Sampling rate : 48.0 kHz
Frame rate : 31.250 FPS (1536 spf)
Bit depth : 16 bits
Compression mode : Lossy
Stream size : 127 MiB (9%)
Alignment : Split accross interleaves
Interleave, duration : 42 ms (1.00 video frame)
Interleave, preload duratio : 500 ms
Service kind : Complete Main

Скриншоты


ТОРРЕНТ ПЕРЕЗАЛИТ
ДОБАВЛЕНА ДОРОЖКА С ПЕРЕВОДОМ САНАЕВА

If your ratio falls below 0.3, you will not be able to download Torrents! More about the rating.

[erzsebet.pl].t706.torrent
Torrent: Registered [ 2017-12-02 17:17 ] · 6B15672CCFFC1FB4E726E6498FE974BAAD11FE65

Download .torrent

Download

15 KB

Status: checked
Completed: 16 times
Size: 1.42 GB
terms.php
[Profile] [PM]
Display posts:    
Reply to topic

Current time is: 27-Jan 13:23

All times are UTC ± 0



You cannot post new topics in this forum
You cannot reply to topics in this forum
You cannot edit your posts in this forum
You cannot delete your posts in this forum
You cannot vote in polls in this forum
You cannot attach files in this forum
You can download files in this forum