У зеркала две стороны / У зеркала два лица / The Mirror Has Two Faces (Барбра Стрейзанд / Barbra Streisand) [1996, США, комедия, мелодрама, VHSRip > DVD] [Promo Copy / Fullscreen] AVO (Визгунов)

Reply to topic
DL-List and Torrent activity
Size:  4.38 GB   |    Registered:  3 years 1 month   |    Completed:  16 times

Seeder not seen: Never

 
   
 
 
Author Message

erzsebet.org ®

Longevity: 3 years 1 month

Posts: 47596

Post 02-Dec-2017 17:17

[Quote]

У зеркала две стороны / У зеркала два лица / The Mirror Has Two Faces [Promo Copy / Fullscreen]- Страна: США
Жанр: комедия, мелодрама
Год выпуска: 1996
Продолжительность: 02:03:14-Перевод: Авторский (одноголосый закадровый) Сергей Визгунов
Субтитры: нет-Режиссер: Барбра Стрейзанд / Barbra Streisand
В ролях: Барбра Стрейзанд, Джефф Бриджес, Лорен Бэколл, Джордж Сигал, Мими Роджерс, Пирс Броснан...- | Релиз: -Описание: Грегори Ларкин - скучный преподаватель математики в Колумбийском университете. Отношения с противоположным полом у него никогда особенно не складывались, и знакомство со скромной коллегой, литераторшей Роуз Морган, вскоре перерастает в брак. Неудовлетворенная личной жизнью женщина идет на эксперимент: когда муж уезжает читать курс лекций, Роуз активно начинает заниматься собой, превращаясь из замухрышки в эффектную красавицу...-Доп. информация: Личная оцифровка VHS.
К сожалению, на кассете был затёрт фрагмент 00:03:22-06:09:00, потому он отсутствует в данной раздаче.-Семпл: http://sendfile.su/1376841-Тип релиза: VHSRip
Контейнер: DVD-Video
Видео: NTSC 720x480 (4:3) @ 640x480, 23.976 fps, MPEG-2 Video, ~4750 Kbps, 0.573 bits/pixel
Аудио: Русский, 48.0 KHz, AC3, 2 ch, 224 Kbps

DVDInfo

Title: The Mirror Has Two Faces 1996 [Fullscreen] VHS Promo
Size: 4.38 Gb ( 4 590 812,00 KBytes ) - DVD-5
Enabled regions: 1, 2, 3, 4, 5, 6, 7, 8
VTS_01 :
Play Length: 02:03:14
Video: NTSC 4:3 (720x480) VBR
Audio:
Russian, AC3, 2/0 (L,R) ch, 224 kbps, Delay 0 mSec

MediaInfo

General
Complete name : \The Mirror Has Two Faces 1996 [Fullscreen] VHS Promo\VIDEO_TS\VTS_01_1.VOB
Format : MPEG-PS
File size : 1 024 MiB
Duration : 28 min 10 s
Overall bit rate mode : Variable
Overall bit rate : 5 081 kb/s
Video
ID : 224 (0xE0)
Format : MPEG Video
Format version : Version 2
Format profile : [email protected]
Format settings : CustomMatrix / BVOP
Format settings, BVOP : Yes
Format settings, Matrix : Custom
Format settings, GOP : Variable
Duration : 28 min 10 s
Bit rate mode : Variable
Bit rate : 4 750 kb/s
Width : 720 pixels
Height : 480 pixels
Display aspect ratio : 4:3
Frame rate : 23.976 (24000/1001) FPS
Color space : YUV
Chroma subsampling : 4:2:0
Bit depth : 8 bits
Scan type : Progressive
Scan order : 2:3 Pulldown
Compression mode : Lossy
Bits/(Pixel*Frame) : 0.573
Time code of first frame : 00:00:00:00
Time code source : Group of pictures header
GOP, Open/Closed : Open
GOP, Open/Closed of first frame : Closed
Stream size : 958 MiB (94%)
Audio
ID : 189 (0xBD)-128 (0x80)
Format : AC-3
Format/Info : Audio Coding 3
Format settings, Endianness : Big
Muxing mode : DVD-Video
Duration : 28 min 10 s
Bit rate mode : Constant
Bit rate : 224 kb/s
Channel(s) : 2 channels
Channel positions : Front: L R
Sampling rate : 48.0 kHz
Frame rate : 31.250 FPS (1536 SPF)
Bit depth : 16 bits
Compression mode : Lossy
Stream size : 45.1 MiB (4%)
Service kind : Complete Main
Menu

Fullscreen VS Widescreen

Скан обложки VHS

If your ratio falls below 0.3, you will not be able to download Torrents! More about the rating.

[erzsebet.pl].t708.torrent
Torrent: Registered [ 2017-12-02 17:17 ] · 0A56E0C4B29E6341CBA980F764A4E785EE6901DD

Download .torrent

Download

23 KB

Status: checked
Completed: 16 times
Size: 4.38 GB
terms.php
[Profile] [PM]
Display posts:    
Reply to topic

Current time is: 17-Jan 02:21

All times are UTC ± 0



You cannot post new topics in this forum
You cannot reply to topics in this forum
You cannot edit your posts in this forum
You cannot delete your posts in this forum
You cannot vote in polls in this forum
You cannot attach files in this forum
You can download files in this forum