Кобра / Cobra (Джордж Пан Косматос / George Pan Cosmatos) [1986, США, боевик, криминал, BDRip] AVO (Леонид Володарский)

Reply to topic
DL-List and Torrent activity
Size:  746 MB   |    Registered:  3 years 1 month   |    Completed:  16 times

Seeder not seen: Never

 
   
 
 
Author Message

erzsebet.org ®

Longevity: 3 years 1 month

Posts: 47596

Post 02-Dec-2017 17:12

[Quote]

Кобра / Cobra
Страна: США
Жанр: боевик, криминал
Год выпуска: 1986
Продолжительность: 01:27:03
Перевод: Авторский (одноголосый закадровый) Леонид Володарский
Субтитры: нет
Режиссер: Джордж Пан Косматос / George Pan Cosmatos
В ролях: Сильвестр Сталлоне, Бриджитт Нильсен, Рени Сантони, Эндрю Робинсон, Брайан Томпсон, Джон Херцфелд, Ли Гарлингтон, Арт ЛаФлёр, Марко Родригес
Описание: Трудовые будни полицейского Марио Кобретти скучными не назовёшь. Вооружённые бандиты врываются в супермаркеты, стреляют в людей, а репортёры и некоторые коллеги призывают соблюдать права этих головорезов. Но основная проблема лейтенанта по прозвищу Кобра – это банда жестокого убийцы Найта Слэшера. Выйти на след злодея удаётся случайно. Его замечает на месте очередного преступления проезжающая мимо фотомодель Ингрид. Слэшер и его сообщники начинают преследовать девушку, и защитить её может только Кобра, имеющий своё понимание закона и справедливости.
Внимание перезалив : -- Рип сделан с Ремукса
Сэмпл: http://multi-up.com/1173493
Качество видео: BDRip (Исходник BDRemux 1080p)
Формат видео: AVI
Видео: XviD, 656x368, (16:9), 23.976 fps, 1061 Кбит/с, 8 бит
Аудио: Русский (MP3, 2 ch, 48,0 KHz, 128 Kbps)

MediaInfo

Общее
Полное имя : D:\Видеофильмы\В и д е о\Кобра (боевик Сталлоне 1986год, Володарский ).avi
Формат : AVI
Формат/Информация : Audio Video Interleave
Размер файла : 746 Мбайт
Продолжительность : 1 ч. 27 м.
Общий поток : 1198 Кбит/сек
Программа кодирования : VirtualDubMod 1.5.10.2 (build 2540/release)
Библиотека кодирования : VirtualDubMod build 2540/release
Видео
Идентификатор : 0
Формат : MPEG-4 Visual
Профиль формата : Advanced [email protected]
Параметр BVOP формата : 2
Параметр QPel формата : Нет
Параметр GMC формата : Без точки перехода
Параметр матрицы формата : Выборочная
Идентификатор кодека : XVID
Идентификатор кодека/Подсказка : XviD
Продолжительность : 1 ч. 27 м.
Битрейт : 1061 Кбит/сек
Ширина : 656 пикселей
Высота : 368 пикселей
Соотношение сторон : 16:9
Частота кадров : 23,976 (23976/1000) кадра/сек
Цветовое пространство : YUV
Субдискретизация насыщенности : 4:2:0
Битовая глубина : 8 бит
Тип развёртки : Прогрессивная
Метод сжатия : С потерями
Бит/(Пиксели*Кадры) : 0.183
Размер потока : 661 Мбайт (89%)
Библиотека кодирования : XviD 1.2.1 (UTC 2008-12-04)
Аудио
Идентификатор : 1
Формат : MPEG Audio
Версия формата : Version 1
Профиль формата : Layer 3
Идентификатор кодека : 55
Идентификатор кодека/Подсказка : MP3
Продолжительность : 1 ч. 27 м.
Вид битрейта : Постоянный
Битрейт : 128 Кбит/сек
Каналы : 2 канала
Частота : 48,0 КГц
Метод сжатия : С потерями
Размер потока : 79,7 Мбайт (11%)
Выравнивание : Соединение по промежуткам
Продолжительность промежутка : 42 мс. (1,00 видеокадр)
Время предзагрузки промежутка : 504 мс.
Библиотека кодирования : LAME3.99r
Настройки программы : -m s -V 4 -q 2 -lowpass 17 -b 128

Скриншот c названием фильма

Скриншоты

If your ratio falls below 0.3, you will not be able to download Torrents! More about the rating.

[erzsebet.pl].t713.torrent
Torrent: Registered [ 2017-12-02 17:13 ] · 2E48BB3273636D8908066F02DA79AB7451B303CC

Download .torrent

Download

15 KB

Status: checked
Completed: 16 times
Size: 746 MB
terms.php
[Profile] [PM]
Display posts:    
Reply to topic

Current time is: 23-Jan 14:10

All times are UTC ± 0



You cannot post new topics in this forum
You cannot reply to topics in this forum
You cannot edit your posts in this forum
You cannot delete your posts in this forum
You cannot vote in polls in this forum
You cannot attach files in this forum
You can download files in this forum