Тайные игры / Secret Games (Александр Грегори Ипполайт / Alexander Gregory Hippolyte) [1992, США, триллер, драма, DVDRip] AVO (Сергей Визгунов) + DVO (ЕА) + Original Eng

Reply to topic
DL-List and Torrent activity
Size:  1.36 GB   |    Registered:  3 years 1 month   |    Completed:  16 times

Seeder not seen: Never

 
   
 
 
Author Message

erzsebet.org ®

Longevity: 3 years 1 month

Posts: 47596

Post 02-Dec-2017 17:16

[Quote]

Тайные игры / Secret Games
Страна: США
Жанр: триллер, драма + большая капля эротики
Год выпуска: 1992
Продолжительность: 01:36:53
Перевод: Авторский (одноголосый закадровый) Сергей Визгунов
Перевод 2: Профессиональный двухголосый закадровый ЕА [РАКУРС]
Субтитры: нет
Оригинальная аудиодорожка: английский
Режиссер: Александр Грегори Ипполайт / Alexander Gregory Hippolyte
В ролях: Мартин Хьюитт /Martin Hewitt/, Мишель Брин /Michele Brin/, Делия Шеппард /Delia Sheppard/, Билли Драго /Billy Drago/, Сабрина Меско /Sabrina Mesko/, Кимберли Уильямс /Kimberly Williams/, Катя Сассон /Catya Sasson/
Описание: Красивая и молодая женщина , можно сказать, забыла, что такое ласки мужа. Супруг ею пренебрегает. Тогда она устраивается на дневную работу в высококлассный бордель. Вроде бы того, что ей не хватало, теперь много, но ей дико не повезло - она очень и очень понравилась любвеобильному маньяку. Но сюжет здесь не главное, как сами понимаете. (Иванов М.)
Доп. информация: Благодарность:
Анна57 - за дорожку AVO с VHS
xelon2006 - за синхрон дорожки.
Дорожка с DVO синхронизирована и наложена ale_x2008 при помощи Sony Vegas и VirtualDubMod.
За оцифрованную с VHS дорожку благодарим - RoxMarty
P.S. 00:45:34 - 00:46:14 - вставка с переводом С. Визгунова.
Релиз
Сэмпл: https://yadi.sk/i/h5iwKLSZ3PZH4k
Качество видео: DVDRip
Формат видео: AVI
Видео: 640x480 (1.33:1), 25 fps, XviD build 50 ~1348 kbps avg, 0.17 bit/pixel
Аудио: 48 kHz, AC3 Dolby Digital, 2/0 (L,R) ch, ~192 kbps AVO
Аудио 2: AC3 Dolby Digital, 48000Hz, 2/0 (L,R) ch (mono), 192.00 kbps avg DVO
Аудио 2: 48 kHz, AC3 Dolby Digital, 2/0 (L,R) ch, ~256 kbps Original

MediaInfo

Тайные игры - Secret Games [by Edich2] fix.avi
Format : AVI
Format/Info : Audio Video Interleave
File size : 1.36 GiB
Duration : 1 h 36 min
Overall bit rate : 2 008 kb/s
Movie name : Тайные игры - Secret Games [by Edich2]
Director : by Edich2
Writing application : VirtualDubMod 1.5.10.2 (build 2540/release)
Writing library : VirtualDubMod build 2540/release
Comment : erzsebet.org
Video
ID : 0
Format : MPEG-4 Visual
Format profile : Advanced [email protected]
Format settings, BVOP : 1
Format settings, QPel : No
Format settings, GMC : No warppoints
Format settings, Matrix : Custom
Codec ID : XVID
Codec ID/Hint : XviD
Duration : 1 h 36 min
Bit rate : 1 349 kb/s
Width : 640 pixels
Height : 480 pixels
Display aspect ratio : 4:3
Frame rate : 25.000 FPS
Color space : YUV
Chroma subsampling : 4:2:0
Bit depth : 8 bits
Scan type : Progressive
Compression mode : Lossy
Bits/(Pixel*Frame) : 0.176
Stream size : 935 MiB (67%)
Writing library : XviD 1.2.1 (UTC 2008-12-04)
Audio #1
ID : 1
Format : AC-3
Format/Info : Audio Coding 3
Format settings, Endianness : Big
Codec ID : 2000
Duration : 1 h 36 min
Bit rate mode : Constant
Bit rate : 192 kb/s
Channel(s) : 2 channels
Channel positions : Front: L R
Sampling rate : 48.0 kHz
Frame rate : 31.250 FPS (1536 spf)
Bit depth : 16 bits
Compression mode : Lossy
Stream size : 133 MiB (10%)
Alignment : Split accross interleaves
Interleave, duration : 40 ms (1.00 video frame)
Interleave, preload duratio : 500 ms
Service kind : Complete Main
Audio #2
ID : 2
Format : AC-3
Format/Info : Audio Coding 3
Format settings, Endianness : Big
Codec ID : 2000
Duration : 1 h 36 min
Bit rate mode : Constant
Bit rate : 192 kb/s
Channel(s) : 2 channels
Channel positions : Front: L R
Sampling rate : 48.0 kHz
Frame rate : 31.250 FPS (1536 spf)
Bit depth : 16 bits
Compression mode : Lossy
Stream size : 133 MiB (10%)
Alignment : Split accross interleaves
Interleave, duration : 40 ms (1.00 video frame)
Interleave, preload duratio : 500 ms
Service kind : Complete Main
Audio #3
ID : 3
Format : AC-3
Format/Info : Audio Coding 3
Format settings, Endianness : Big
Codec ID : 2000
Duration : 1 h 36 min
Bit rate mode : Constant
Bit rate : 256 kb/s
Channel(s) : 2 channels
Channel positions : Front: L R
Sampling rate : 48.0 kHz
Frame rate : 31.250 FPS (1536 spf)
Bit depth : 16 bits
Compression mode : Lossy
Delay relative to video : 479 ms
Stream size : 177 MiB (13%)
Alignment : Split accross interleaves
Interleave, duration : 40 ms (1.00 video frame)
Interleave, preload duratio : 500 ms
Service kind : Complete Main

Скриншоты



Скриншоты (без цензуры 16+)



ТОРРЕНТ ПЕРЕЗАЛИТ
ДОБАВЛЕНА ДОРОЖКА С ПЕРЕВОДОМ DVO ЕА

If your ratio falls below 0.3, you will not be able to download Torrents! More about the rating.

[erzsebet.pl].t719.torrent
Torrent: Registered [ 2017-12-02 17:17 ] · C5B0DA015D900F823AEC4A28158C4045DB2A3939

Download .torrent

Download

14 KB

Status: checked
Completed: 16 times
Size: 1.36 GB
terms.php
[Profile] [PM]
Display posts:    
Reply to topic

Current time is: 22-Jan 21:37

All times are UTC ± 0



You cannot post new topics in this forum
You cannot reply to topics in this forum
You cannot edit your posts in this forum
You cannot delete your posts in this forum
You cannot vote in polls in this forum
You cannot attach files in this forum
You can download files in this forum