Русский киллер / Running Red (Джерри П. Джейкобс / Jerry P. Jacobs) [1999, США, Боевик, DVDRip] AVO (Юрий Сербин)

Reply to topic
DL-List and Torrent activity
Size:  1.37 GB   |    Registered:  3 years 1 month   |    Completed:  16 times

Seeder not seen: Never

 
   
 
 
Author Message

erzsebet.org ®

Longevity: 3 years 1 month

Posts: 47596

Post 02-Dec-2017 17:16

[Quote]

Русский киллер / Running Red

«Убийство - его профессия»

Страна: США
Жанр: Боевик
Год выпуска: 1999
Продолжительность: 01:32:03
Перевод: Авторский (одноголосый закадровый) Юрий Сербин
Субтитры: нет
Режиссер: Джерри П. Джейкобс / Jerry P. Jacobs
В ролях: Джефф Спикмэн, Энджи Эверхарт, Стенли Кэмел, Илья Баскин, Кэсси Рэй, Барт Брэверман, Джеффри Ривас, ДеЛэйн Мэтьюз, Роберт Миано, Лаура Лемл
Описание: Бывает, что бойцы секретного элитного подразделения российского спецназа тоже порой теряют в бою своих товарищей. А иногда — и родных людей. Григорий, лучший из бойцов, при выполнении очередного задания, потерял брата. Эта трагедия заставила его не только уйти из отряда, но и покинуть страну.
Прошли годы. Теперь Григорий под другим именем, обзаведясь семьей, живет в США тихой, размеренной жизнью. Но за ним постоянно следят, и однажды он получает от своего старого командира неожиданный приказ: Григорий должен вновь стать безжалостным убийцей, иначе он потеряет семью…
Доп. информация: Дорожка с Ю. Сербиным синхронизирована и наложена ale_x2008 при помощи Adobe Audition, Sony Vegas и VirtualDubMod.
За оцифрованную с VHS дорожку благодарим - RoxMarty
Релиз
Сэмпл: https://yadi.sk/i/FTk9JIug3PXYU9
Качество видео: DVDRip
Формат видео: AVI
Видео: XviD build 73, 704x528 (1.33:1), 23.976 fps, 1925 kbps avg, 0.22 bit/pixel
Аудио: AC3 Dolby Digital, 48000Hz 2/0 (L,R) ch (stereo), 192.00 kbps avg

MediaInfo

Русский киллер (Running Red) [by ale_x2008].avi
Format : AVI
Format/Info : Audio Video Interleave
File size : 1.37 GiB
Duration : 1 h 32 min
Overall bit rate : 2 127 kb/s
Movie name : Русский киллер (Running Red) Eng
Director : DVDRip by ale_x2008
Genre : Action
Writing application : VirtualDubMod 1.5.10.3 (build 2550/release)
Original source form/Name : Movie
Copyright : Edich2
Comment : erzsebet.org
Video
ID : 0
Format : MPEG-4 Visual
Format profile : Advanced [email protected]
Format settings, BVOP : 1
Format settings, QPel : No
Format settings, GMC : No warppoints
Format settings, Matrix : Default (MPEG)
Codec ID : XVID
Codec ID/Hint : XviD
Duration : 1 h 32 min
Bit rate : 1 926 kb/s
Width : 704 pixels
Height : 528 pixels
Display aspect ratio : 4:3
Frame rate : 23.976 (24000/1001) FPS
Color space : YUV
Chroma subsampling : 4:2:0
Bit depth : 8 bits
Scan type : Progressive
Compression mode : Lossy
Bits/(Pixel*Frame) : 0.216
Stream size : 1.24 GiB (91%)
Writing library : XviD 73
Audio
ID : 1
Format : AC-3
Format/Info : Audio Coding 3
Format settings, Endianness : Big
Codec ID : 2000
Duration : 1 h 32 min
Bit rate mode : Constant
Bit rate : 192 kb/s
Channel(s) : 2 channels
Channel positions : Front: L R
Sampling rate : 48.0 kHz
Frame rate : 31.250 FPS (1536 spf)
Bit depth : 16 bits
Compression mode : Lossy
Stream size : 126 MiB (9%)
Alignment : Split accross interleaves
Interleave, duration : 42 ms (1.00 video frame)
Interleave, preload duratio : 500 ms
Service kind : Complete Main

Скриншоты


If your ratio falls below 0.3, you will not be able to download Torrents! More about the rating.

[erzsebet.pl].t721.torrent
Torrent: Registered [ 2017-12-02 17:17 ] · 857266E5FF91A3989271E4D8DBDBE657A9B423F1

Download .torrent

Download

14 KB

Status: checked
Completed: 16 times
Size: 1.37 GB
terms.php
[Profile] [PM]
Display posts:    
Reply to topic

Current time is: 26-Jan 08:25

All times are UTC ± 0



You cannot post new topics in this forum
You cannot reply to topics in this forum
You cannot edit your posts in this forum
You cannot delete your posts in this forum
You cannot vote in polls in this forum
You cannot attach files in this forum
You can download files in this forum