Нет пути назад / No Way Back (Фрэнк А. Каппелло / Frank A. Cappello) [1995, США, боевик, триллер, драма, криминал, HDRip] MVO (ТНТ/Россия)

Reply to topic
DL-List and Torrent activity
Size:  1.45 GB   |    Registered:  3 years 1 month   |    Completed:  16 times

Seeder not seen: Never

 
   
 
 
Author Message

erzsebet.org ®

Longevity: 3 years 1 month

Posts: 47596

Post 02-Dec-2017 17:16

[Quote]

Нет пути назад / No Way Back
Год выпуска: 1995
Страна: США
Жанр: боевик, триллер, драма, криминал
Продолжительность: 01:31:10
Перевод: Профессиональный (многоголосый закадровый) - ТНТ/Россия
Субтитры: нет
Режиссер: Фрэнк А. Каппелло / Frank A. Cappello
В ролях: Рассел Кроу / FBI Agent Zack Grant, Хелен Слэйтер / Mary, Эцуси Тоёкава / Yuji Kobayashi, Майкл Лернер / Frank Serlano, Кюсаку Симада / Tetsuro, Кристофер Логан / Mr. Contingency, Serlano Henchman, Келли Ху / Seiko Kobayashi, Эндрю Дж. Ферчланд / Eric Grant, Йен Зиринг / Victor Serlano-Мировая премьера: 13 мая 1995-Описание: Прошло уже несколько лет с момента смерти жены агента ФБР Зака Гранта, но он так и не смог восстановить душевное равновесие после потери близкого человека. Зак постоянно находится на грани эмоционального срыва, и это вредит его работе. Он проваливает несколько операций. Его шанс восстановить себя в глазах коллег - успешно внедрить агента под прикрытием в окружение главаря мафии Фрэнка Серлано...-Огромная благодарность:
vasapel - видеоряд
pasific2013 - личная запись перевода ТНТ с телеканала Россия через видеомагнитофон и оцифровка звука с видеокассеты.
JUSTKANT - синхронизация перевода.-ДАННЫЙ ПЕРЕВОД НА ТРЕКЕРЕ ПОЯВЛЯЕТСЯ ВПЕРВЫЕ.
На русский язык фильм озвучен по заказу телесети "ТНТ" в 2002 году.
Текст читают Никита Прозоровский, Ольга Сирина и Игорь Тарадайкин.-
Рейтинг

MPAA: R - Лицам до 17 лет обязательно присутствие взрослого.-Качество видео: HDRip
Формат видео: AVI -> //Сэмпл//
Видео: XviD, 720x384 (1.85:1), 23.976 fps, 2082 kbps
Аудио:
1 - 48 khz, AC3 Dolby Digital, 2/0 (L,R) ch, ~192 kbps [Россия/ТНТ] VHSRip-ТВ

MediaInfo

General
Complete name : D:\Нет пути назад (Россия).avi
Format : AVI
Format/Info : Audio Video Interleave
File size : 1.45 GiB
Duration : 1 h 31 min
Overall bit rate : 2 283 kb/s
Movie name : Нет пути назад / No Way Back (Россия/ТНТ)
Director : JUSTKANT
Writing application : VirtualDubMod 1.5.10.3 (build 2550/release)
Copyright : На русский язык фильм озвучен по заказу телесети "ТНТ" в 2002 году
Comment : Качество звука: ТНТ (запись с т/к Россия) - VHSRipТВ (pasific2013)
Video
ID : 0
Format : MPEG-4 Visual
Format profile : Advanced [email protected]
Format settings, BVOP : 3
Format settings, QPel : No
Format settings, GMC : No warppoints
Format settings, Matrix : Custom
Codec ID : XVID
Codec ID/Hint : XviD
Duration : 1 h 31 min
Bit rate : 2 082 kb/s
Width : 720 pixels
Height : 384 pixels
Display aspect ratio : 1.85:1
Frame rate : 23.976 (24000/1001) FPS
Color space : YUV
Chroma subsampling : 4:2:0
Bit depth : 8 bits
Scan type : Progressive
Compression mode : Lossy
Bits/(Pixel*Frame) : 0.314
Stream size : 1.33 GiB (91%)
Writing library : XviD 1.2.1 (UTC 2008-12-04)
Audio
ID : 1
Format : AC-3
Format/Info : Audio Coding 3
Format settings, Endianness : Big
Codec ID : 2000
Duration : 1 h 31 min
Bit rate mode : Constant
Bit rate : 192 kb/s
Channel(s) : 2 channels
Channel positions : Front: L R
Sampling rate : 48.0 kHz
Frame rate : 31.250 FPS (1536 SPF)
Bit depth : 16 bits
Compression mode : Lossy
Stream size : 125 MiB (8%)
Alignment : Split accross interleaves
Interleave, duration : 42 ms (1.00 video frame)
Interleave, preload duratio : 500 ms
Title : РОССИЯ/ТНТ: Никита Прозоровский, Ольга Сирина и Игорь Тарадайкин
Service kind : Complete Main

Скриншот c названием фильма

Скриншоты

If your ratio falls below 0.3, you will not be able to download Torrents! More about the rating.

[erzsebet.pl].t727.torrent
Torrent: Registered [ 2017-12-02 17:17 ] · AFF418286B3ACED3DCB5F9B4A333657A6C9A9181

Download .torrent

Download

15 KB

Status: checked
Completed: 16 times
Size: 1.45 GB
terms.php
[Profile] [PM]
Display posts:    
Reply to topic

Current time is: 24-Jan 14:36

All times are UTC ± 0



You cannot post new topics in this forum
You cannot reply to topics in this forum
You cannot edit your posts in this forum
You cannot delete your posts in this forum
You cannot vote in polls in this forum
You cannot attach files in this forum
You can download files in this forum