Вспомнить всё / Total Recall (Пол Верховен / Paul Verhoeven) [1990, США, фантастика, боевик, HDRip] AVO (Прямостанов)

DL-List and Torrent activity
Size:  1.46 GB   |    Registered:  3 years 1 month   |    Completed:  16 times
Seeders:  4   Leechers:  1   Show peers in full details
 
   
 
 

erzsebet.org ®

Longevity:
3 years 1 month
Posts:
47596

[Quote] 

Вспомнить всё / Total Recall
Год выпуска: 1990
Страна: США
Жанр: фантастика, боевик
Продолжительность: 01:53:31
Перевод: Авторский (одноголосый закадровый) - Павел Прямостанов
Субтитры: нет
Режиссер: Пол Верховен / Paul Verhoeven
В ролях: Арнольд Шварценеггер / Douglas Quaid / Hauser, Рэйчел Тикотин / Melina, Шэрон Стоун / Lori, Майкл Айронсайд / Richter, Маршалл Белл / George / Kuato, Майкл Чэмпион / Helm, Мэл Джонсон мл. / Benny, Рой Броксмит / Dr. Edgemar, Розмари Дансмор / Dr. Lull, Ронни Кокс / Vilos Cohaagen-Мировая премьера: 1 июня 1990-Описание: В 2048 году, чтобы как-то развлечься, простой рабочий Даг Куэйд решает воспользоваться услугами некой компании, которая за определенную плату посылает в его мозг импульсы создающие полную иллюзию другой, интересной жизни. Все бы хорошо, но после сеанса, Даг не может понять, кто он на самом деле, простой работяга или владеющий всеми боевыми искусствами спецназовец. Его боятся, его хотят убить, даже любимая жена, пытается свернуть ему шею. Чтобы выжить, ему необходимо вспомнить все...-Огромная благодарность:
Stuey - видеоряд.
Fikaloid - личная оцифровка Прямостанова со своей видеокассеты.
JUSTKANT - синхронизация перевода.-Данный перевод на трекере появляется впервые..-
Рейтинг

MPAA: R - Лицам до 17 лет обязательно присутствие взрослого.-Качество видео: HDRip
Формат видео: AVI -> //Сэмпл//
Видео: XviD, 704x384 (1.85:1), 24.000 fps, 1642 kbps
Аудио:
1 - 48 khz, AC3 Dolby Digital, 2/0 (L,R) ch, ~192 kbps [Прямостанов] VHSRip

Информация о переводе РТР

Изначально я планировал делать релиз с двумя переводами: РТР и Прямостановым.
Но поскольку перевод РТР уже есть на трекере в этих раздачах, то было решено его не добавлять в раздачу, чтобы не сравнивать звук.
Поэтому выкладываю дорожку отдельно: https://cloud.mail.ru/public/FqJ7/fi1uNrAw3
За дорожку большое спасибо waren

MediaInfo

General
Complete name : D:\Вспомнить всё (Прямостанов).avi
Format : AVI
Format/Info : Audio Video Interleave
File size : 1.46 GiB
Duration : 1 h 53 min
Overall bit rate : 1 843 kb/s
Movie name : Вспомнить всё / Total Recall (Прямостанов)
Director : JUSTKANT
Writing application : VirtualDubMod 1.5.10.3 (build 2550/release)
Copyright : Качество звука: VHSRip (Fikaloid)
Video
ID : 0
Format : MPEG-4 Visual
Format profile : Advanced [email protected]
Format settings, BVOP : 2
Format settings, QPel : No
Format settings, GMC : No warppoints
Format settings, Matrix : Default (MPEG)
Codec ID : XVID
Codec ID/Hint : XviD
Duration : 1 h 53 min
Bit rate : 1 642 kb/s
Width : 704 pixels
Height : 384 pixels
Display aspect ratio : 1.85:1
Frame rate : 24.000 FPS
Color space : YUV
Chroma subsampling : 4:2:0
Bit depth : 8 bits
Scan type : Progressive
Compression mode : Lossy
Bits/(Pixel*Frame) : 0.253
Stream size : 1.30 GiB (89%)
Writing library : XviD 64
Audio
ID : 1
Format : AC-3
Format/Info : Audio Coding 3
Format settings, Endianness : Big
Codec ID : 2000
Duration : 1 h 53 min
Bit rate mode : Constant
Bit rate : 192 kb/s
Channel(s) : 2 channels
Channel positions : Front: L R
Sampling rate : 48.0 kHz
Frame rate : 31.250 FPS (1536 SPF)
Bit depth : 16 bits
Compression mode : Lossy
Stream size : 156 MiB (10%)
Alignment : Split accross interleaves
Interleave, duration : 42 ms (1.00 video frame)
Interleave, preload duratio : 500 ms
Title : Павел Прямостанов (VHSRip)
Service kind : Complete Main

Скриншот c названием фильма

Скриншоты

If your ratio falls below 0.3, you will not be able to download Torrents! More about the rating.

[erzsebet.pl].t736.torrent
Torrent: Registered   [ 2017-12-02 17:13 ]

Download .torrent

Download

15 KB

Status: checked
Completed: 16 times
Size: 1.46 GB
terms.php

#1

02-Dec-2017 17:12

[Profile]  [PM] 
Display posts:    

You cannot post new topics in this forum
You cannot reply to topics in this forum
You cannot edit your posts in this forum
You cannot delete your posts in this forum
You cannot vote in polls in this forum
You cannot attach files in this forum
You can download files in this forum
User agreement
For copyright holders
Advertise on this site

Скачайте на халяву через торрент на трекере erzsebet.pl

!ATTENTION!
The site does not give electronic versions of products, and is engaged only in a collecting and cataloguing of the references sent and published at a forum by our readers. If you are the legal owner of any submitted material and do not wish that the reference to it was in our catalogue, contact us and we shall immediately remove her. Files for an exchange on tracker are given by users of a site, and the administration does not bear the responsibility for their maintenance. The request to not fill in the files protected by copyrights, and also files of the illegal maintenance!