Норт / North (Роб Райнер / Rob Reiner) [1994, США, комедия, DVDRip-AVC] [fullscreen] AVO (Пронин) + Original Eng

Reply to topic
DL-List and Torrent activity
Size:  2.16 GB   |    Registered:  3 years 1 month   |    Completed:  16 times

Seeder not seen: Never

 
   
 
 
Author Message

erzsebet.org ®

Longevity: 3 years 1 month

Posts: 47596

Post 02-Dec-2017 17:16

[Quote]

Норт / North
[Fullscreen - 4X3]
Страна: США
Жанр: комедия
Год выпуска: 1994
Продолжительность: 1:34:35
Перевод: Авторский (одноголосый закадровый) Антона Пронина
Субтитры: нет
Оригинальная аудиодорожка: английский
Режиссер: Роб Райнер /Rob Reiner/
В ролях: Элайджа Вуд /Elijah Wood/, Брюс Уиллис /Bruce Willis/, Джон Ловитц /Jon Lovitz/, Джейсон Александер /Jason Alexander/, Алан Аркин /Alan Arkin/, Дэн Эйкройд /Dan Aykroyd/, Кэти Бэйтс /Kathy Bates/, Роберт Костанцо /Robert Costanzo/, Фэйт Форд, Грэм Грин /Graham Greene/, Джулия Луис-Дрейфус /Julia Louis-Dreyfus/
Рецензия Михаила Иванова: В эксцентрической комедии, поставленной по роману Алана Звайбеля, примерный во всех отношениях мальчик уходит от своих родителей, так как они его не замечали, не ценили и не уважали. Он подал на них в суд, чтобы их лишили родительских прав, и объявил через прессу всему миру, что хочет сам выбрать себе новых родителей. От желающих получить самого лучшего в мире ребенка не было отбоя. А подал ему эту идею Брюс Уиллис, работавший пасхальным зайцем в универмаге в канун Рождества, когда Норт забежал туда поразмыслить о своей горькой судьбине. После этого Норт перепробовал кучу новых родителей, но нигде не прижился - даже у эскимосов и заирцев он побывал. Пока Норт разъезжал по разным родителям, злодеи, воспользовались страхом всех остальных пап и мам потерять своих чад, затевают государственный переворот. А используют они для этого детей, которые заставляли своих предков голосовать за нужного им президента. Для спасения человечества Норт должен вернуться к родным отцу и матери.
Доп. информация: исходник от Ibraghim; перевод Пронина оцифровал и подготовил karlll ;в кассетной дорожке имеется лёгкое эхо английской речи, из-за различий в вериях в 1:05:30-1:07:00 и 1:26:40-1:28:00 имеются пропуски перевода и некоторый рассинхрон в этих промежутках
Качество видео: DVDRip-AVC ~Сэмпл~
Формат видео: MKV
Видео: MPEG4 (H264) 704x528 25fps 2589Kbps
Аудио 1: Dolby AC3 48KHz 2ch 224Kbps - рус
Аудио 2: Dolby AC3 48KHz 6ch 448Kbps - анг

MediaInfo

Формат : Matroska
Версия формата : Version 2
Размер файла : 2,16 Гбайт
Продолжительность : 1 ч. 34 м.
Общий поток : 3263 Кбит/сек
Дата кодирования : UTC 2017-11-06 21:04:26
Программа кодирования : mkvmerge v6.9.1 ('Blue Panther') 32bit built on Apr 18 2014 18:15:44
Библиотека кодирования : libebml v1.3.0 + libmatroska v1.4.1
Видео
Идентификатор : 1
Формат : AVC
Формат/Информация : Advanced Video Codec
Профиль формата : [email protected]
Параметр CABAC формата : Да
Параметр ReFrames формата : 7 кадров
Идентификатор кодека : V_MPEG4/ISO/AVC
Продолжительность : 1 ч. 34 м.
Битрейт : 2589 Кбит/сек
Ширина : 704 пикселя
Высота : 528 пикселей
Соотношение сторон : 4:3
Режим частоты кадров : Постоянный
Частота кадров : 25,000 кадров/сек
Цветовое пространство : YUV
Субдискретизация насыщенности : 4:2:0
Битовая глубина : 8 бит
Тип развёртки : Прогрессивная
Бит/(Пиксели*Кадры) : 0.279
Размер потока : 1,67 Гбайт (77%)
Заголовок : North (1994)
Библиотека кодирования : x264 core 148 r2638 7599210
Настройки программы : cabac=1 / ref=7 / deblock=1:-1:-1 / analyse=0x3:0x113 / me=umh / subme=9 / psy=1 / psy_rd=1.00:0.20 / mixed_ref=1 / me_range=24 / chroma_me=1 / trellis=2 / 8x8dct=1 / cqm=0 / deadzone=21,11 / fast_pskip=0 / chroma_qp_offset=-3 / threads=6 / lookahead_threads=1 / sliced_threads=0 / nr=0 / decimate=0 / interlaced=0 / bluray_compat=0 / constrained_intra=0 / bframes=7 / b_pyramid=2 / b_adapt=2 / b_bias=0 / direct=3 / weightb=1 / open_gop=0 / weightp=2 / keyint=250 / keyint_min=25 / scenecut=40 / intra_refresh=0 / rc_lookahead=50 / rc=2pass / mbtree=1 / bitrate=2589 / ratetol=1.0 / qcomp=0.60 / qpmin=0 / qpmax=69 / qpstep=4 / cplxblur=20.0 / qblur=0.5 / vbv_maxrate=14000 / vbv_bufsize=14000 / nal_hrd=none / filler=0 / ip_ratio=1.40 / aq=1:1.00
Язык : English
Default : Да
Forced : Нет
Аудио #1
Идентификатор : 2
Формат : AC-3
Формат/Информация : Audio Coding 3
Расширение режима : CM (complete main)
Параметр Endianness формата : Big
Идентификатор кодека : A_AC3
Продолжительность : 1 ч. 34 м.
Вид битрейта : Постоянный
Битрейт : 224 Кбит/сек
Каналы : 2 канала
Расположение каналов : Front: L R
Частота : 48,0 КГц
Битовая глубина : 16 бит
Метод сжатия : С потерями
Размер потока : 152 Мбайт (7%)
Заголовок : Пронин
Язык : Russian
Default : Да
Forced : Нет
Аудио #2
Идентификатор : 3
Формат : AC-3
Формат/Информация : Audio Coding 3
Расширение режима : CM (complete main)
Параметр Endianness формата : Big
Идентификатор кодека : A_AC3
Продолжительность : 1 ч. 34 м.
Вид битрейта : Постоянный
Битрейт : 448 Кбит/сек
Каналы : 6 каналов
Расположение каналов : Front: L C R, Side: L R, LFE
Частота : 48,0 КГц
Битовая глубина : 16 бит
Метод сжатия : С потерями
Размер потока : 303 Мбайт (14%)
Заголовок : english
Язык : English
Default : Нет
Forced : Нет

Скриншоты

If your ratio falls below 0.3, you will not be able to download Torrents! More about the rating.

[erzsebet.pl].t737.torrent
Torrent: Registered [ 2017-12-02 17:17 ] · 7BFFA634854AFEDCCE72B2E5F7C591BD1058816D

Download .torrent

Download

11 KB

Status: checked
Completed: 16 times
Size: 2.16 GB
terms.php
[Profile] [PM]
Display posts:    
Reply to topic

Current time is: 28-Jan 08:21

All times are UTC ± 0



You cannot post new topics in this forum
You cannot reply to topics in this forum
You cannot edit your posts in this forum
You cannot delete your posts in this forum
You cannot vote in polls in this forum
You cannot attach files in this forum
You can download files in this forum