Мальчик-миллионер / Парнишка-миллионер / The Million Dollar Kid (Нил Мандт / Neil Mandt) [2000, США, комедия, детский, семейный, VHSRip-AVC] [Promo Copy] AVO (Дольский)

Reply to topic
DL-List and Torrent activity
Size:  2.18 GB   |    Registered:  3 years 1 month   |    Completed:  16 times

Seeder not seen: Never

 
   
 
 
Author Message

erzsebet.org ®

Longevity: 3 years 1 month

Posts: 47596

Post 02-Dec-2017 17:16

[Quote]

Мальчик-миллионер / The Million Dollar Kid [Promo Copy]- Страна: США
Жанр: комедия, детский, семейный
Год выпуска: 2000
Продолжительность: 01:29:17-Перевод: Авторский (одноголосый закадровый) - Андрей Дольский
Субтитры: нет-Режиссер: Нил Мандт / Neil Mandt
В ролях: Ричард Томас, Морин МакКормик, С. Томас Хауэлл, Кори Фельдман, Эстель Гетти, Рэнди Трэвис, Кэй Баллард, Клинт Ховард...- | Релиз: -Описание: По мотивам книги Марка Твена «Наследство в тридцать тысяч долларов».
Однажды, в канун Рождества, 10-летний Шейн Хантер тайком от родителей купил лотерейный билет и выиграл целых 50 миллионов долларов! Но, чтобы получить выигрыш, мало купить билет, его еще надо не потерять. А именно такая беда и произошла с семьей Хантеров. Счастливый билет был потерян в самом центре Лос-Анджелеса, и у Хантеров остается только четыре часа, чтобы найти его и успеть получить выигрыш...-Доп. информация: Личная оцифровка VHS.-Интересные факты:
  • Андрей Дольский перевёл название фильма как "Один дома, часть 4: Мальчик-миллионер".
  • По мнению Андрея Дольского продюсерами данного фильма являются Джон Хьюз и Крис Коламбус.
  • По мнению Андрея Дольского в фильме снимались другие актёры, а также Адам Сендлер.-Семпл: http://sendfile.su/1375499-Тип релиза: VHSRip-AVC
    Контейнер: MKV
    Видео: 698x560 (4:3) @ 746x560, 23.976 fps, AVC, ~3239 Kbps, 0.346 bits/pixel
    Аудио: Русский, 48.0 KHz, AC3, 1 ch, 192 Kbps - Дольский

    MediaInfo

    General
    Unique ID : 237779067400778497571250301638215153208 (0xB2E29525A35F9C96BE7AD6C1A32F3638)
    Complete name : The Million Dollar Kid 2000 Promo VHS Dolskiy.mkv
    Format : Matroska
    Format version : Version 4 / Version 2
    File size : 2.18 GiB
    Duration : 1 h 29 min
    Overall bit rate : 3 501 kb/s
    Encoded date : UTC 2017-11-06 17:40:52
    Writing application : mkvmerge v17.0.0 ('Be Ur Friend') 64-bit
    Writing library : libebml v1.3.5 + libmatroska v1.4.8
    Cover : Yes
    Attachments : Cover.jpg
    Video
    ID : 1
    Format : AVC
    Format/Info : Advanced Video Codec
    Format profile : [email protected]
    Format settings : CABAC / 16 Ref Frames
    Format settings, CABAC : Yes
    Format settings, RefFrames : 16 frames
    Codec ID : V_MPEG4/ISO/AVC
    Duration : 1 h 29 min
    Bit rate : 3 303 kb/s
    Width : 698 pixels
    Height : 560 pixels
    Display aspect ratio : 4:3
    Frame rate mode : Constant
    Frame rate : 23.976 (24000/1001) FPS
    Color space : YUV
    Chroma subsampling : 4:2:0
    Bit depth : 8 bits
    Scan type : Progressive
    Bits/(Pixel*Frame) : 0.352
    Stream size : 2.06 GiB (94%)
    Writing library : x264 core 152 r2851kMod ba24899
    Encoding settings : cabac=1 / ref=16 / deblock=1:-3:-2 / analyse=0x3:0x133 / me=umh / subme=11 / psy=1 / fade_compensate=0.00 / psy_rd=1.00:0.00 / mixed_ref=1 / me_range=48 / chroma_me=1 / trellis=2 / 8x8dct=1 / cqm=0 / deadzone=21,11 / fast_pskip=0 / chroma_qp_offset=-2 / threads=12 / lookahead_threads=3 / sliced_threads=0 / nr=0 / decimate=1 / interlaced=0 / bluray_compat=0 / constrained_intra=0 / bframes=14 / b_pyramid=2 / b_adapt=2 / b_bias=0 / direct=3 / weightb=1 / open_gop=0 / weightp=0 / keyint=250 / keyint_min=23 / scenecut=40 / intra_refresh=0 / rc=crf / mbtree=0 / crf=19.0000 / qcomp=0.60 / qpmin=0 / qpmax=69 / qpstep=4 / ip_ratio=1.40 / pb_ratio=1.30 / aq=3:0.75
    Default : Yes
    Forced : No
    Color range : Limited
    Color primaries : BT.601 PAL
    Transfer characteristics : BT.470 System B, BT.470 System G
    Matrix coefficients : BT.470 System B, BT.470 System G
    Audio
    ID : 2
    Format : AC-3
    Format/Info : Audio Coding 3
    Format settings, Endianness : Big
    Codec ID : A_AC3
    Duration : 1 h 29 min
    Bit rate mode : Constant
    Bit rate : 192 kb/s
    Channel(s) : 1 channel
    Channel positions : Front: C
    Sampling rate : 48.0 kHz
    Frame rate : 31.250 FPS (1536 SPF)
    Bit depth : 16 bits
    Compression mode : Lossy
    Stream size : 123 MiB (5%)
    Title : Дольский
    Language : Russian
    Service kind : Complete Main
    Default : Yes
    Forced : No

    Скан обложки VHS

    If your ratio falls below 0.3, you will not be able to download Torrents! More about the rating.

    [erzsebet.pl].t745.torrent
    Torrent: Registered [ 2017-12-02 17:17 ] · 6E1AF68DFF0C40C2FBB0DF68F8CF23C3C9A33B37

    Download .torrent

    Download

    11 KB

    Status: checked
    Completed: 16 times
    Size: 2.18 GB
    terms.php
  • [Profile] [PM]
    Display posts:    
    Reply to topic

    Current time is: 21-Jan 17:07

    All times are UTC ± 0



    You cannot post new topics in this forum
    You cannot reply to topics in this forum
    You cannot edit your posts in this forum
    You cannot delete your posts in this forum
    You cannot vote in polls in this forum
    You cannot attach files in this forum
    You can download files in this forum