Первый миллион / Pierwszy milion (Вальдемар Дзики / Waldemar Dziki) [2000, Польша, Драма,Триллер, DVDRip] MVO + Original Pol

Reply to topic
DL-List and Torrent activity
Size:  1.37 GB   |    Registered:  3 years 1 month   |    Completed:  16 times

Seeder not seen: Never

 
   
 
 
Author Message

erzsebet.org ®

Longevity: 3 years 1 month

Posts: 47596

Post 02-Dec-2017 17:16

[Quote]

Первый миллион / Pierwszy milion
Страна: Польша
Жанр: Драма,Триллер
Год выпуска: 2000
Продолжительность: 01:37:16
Перевод: Профессиональный (многоголосый закадровый)
Субтитры: нет
Оригинальная аудиодорожка: Польский
Режиссер: Вальдемар Дзики / Waldemar Dziki
В ролях: Шимон Бобровски
Пжемыслав Садовски
Александр Семчев
Агнешка Вархульска
Джоанна Орлеанска
Малгожата Ярмалкович
Эдита Лукашевич-Лисовска
Цезари Косиньски
Ян Вечорковский
Элиза Рычяк
Описание: Настоящая любовь, настоящая дружба, настоящие деньги. Закадычные друзья Фриц, Курц и Пики с детских лет мечтали выбраться из убогой нищеты рабочего квартала в еще социалистической Польше. Улица воспитала их шальные головы и подарила им горячие сердца. И вот трое повзрослевших парней в неравной схватке с жизнью добывают свой первый миллион. Изысканная роскошь, бешеные деньги, шикарные авто - кажется, удача наконец-то заглянула к ним. Однако неожиданная встреча с подругой детства - прекрасной Доминикой - становится роковым возмездием беспощадной судьбы.
Доп. информация: Рип сделан с оригинального DVD
Сэмпл: http://multi-up.com/1175196
Качество видео: DVDRip
Формат видео: AVI
Видео: XVID, 704х400, 25.000 fps, 1 621 Kbps
Аудио 1: Русский (AC3 192 kbps 2 ch 48.0 KHz)
Аудио 2: Польский (AC3 192 kbps 2 ch 48.0 KHz)

MediaInfo

General
Complete name : C:\Documents and Settings\Admin\Мои документы\Downloads\Pierwszy milion 2000.avi
Format : AVI
Format/Info : Audio Video Interleave
File size : 1.37 GiB
Duration : 1h 37mn
Overall bit rate : 2 014 Kbps
Writing application : VirtualDubMod 1.5.4.1 (build 2178/release)
Writing library : VirtualDubMod build 2178/release
Video
ID : 0
Format : MPEG-4 Visual
Format profile : Advanced [email protected]
Format settings, BVOP : 1
Format settings, QPel : No
Format settings, GMC : No warppoints
Format settings, Matrix : Custom
Codec ID : XVID
Codec ID/Hint : XviD
Duration : 1h 37mn
Bit rate : 1 621 Kbps
Width : 704 pixels
Height : 400 pixels
Display aspect ratio : 16:9
Frame rate : 25.000 fps
Color space : YUV
Chroma subsampling : 4:2:0
Bit depth : 8 bits
Scan type : Progressive
Compression mode : Lossy
Bits/(Pixel*Frame) : 0.230
Stream size : 1.10 GiB (80%)
Writing library : XviD 1.2.1 (UTC 2008-12-04)
Audio #1
ID : 1
Format : AC-3
Format/Info : Audio Coding 3
Mode extension : CM (complete main)
Format settings, Endianness : Big
Codec ID : 2000
Duration : 1h 37mn
Bit rate mode : Constant
Bit rate : 192 Kbps
Channel(s) : 2 channels
Channel positions : Front: L R
Sampling rate : 48.0 KHz
Bit depth : 16 bits
Compression mode : Lossy
Stream size : 134 MiB (10%)
Alignment : Split accross interleaves
Interleave, duration : 96 ms (2.40 video frames)
Interleave, preload duration : 96 ms
Language : Deutsch
Audio #2
ID : 2
Format : AC-3
Format/Info : Audio Coding 3
Mode extension : CM (complete main)
Format settings, Endianness : Big
Codec ID : 2000
Duration : 1h 37mn
Bit rate mode : Constant
Bit rate : 192 Kbps
Channel(s) : 2 channels
Channel positions : Front: L R
Sampling rate : 48.0 KHz
Bit depth : 16 bits
Compression mode : Lossy
Stream size : 134 MiB (10%)
Alignment : Split accross interleaves
Interleave, duration : 96 ms (2.40 video frames)
Interleave, preload duration : 96 ms
Language : Deutsch

Скриншот c названием фильма

Скриншоты

If your ratio falls below 0.3, you will not be able to download Torrents! More about the rating.

[erzsebet.pl].t749.torrent
Torrent: Registered [ 2017-12-02 17:17 ] · D8FF1F46847566432D2CE3F5C111C8DA2F7B7AEF

Download .torrent

Download

14 KB

Status: checked
Completed: 16 times
Size: 1.37 GB
terms.php
[Profile] [PM]
Display posts:    
Reply to topic

Current time is: 20-Jan 06:32

All times are UTC ± 0



You cannot post new topics in this forum
You cannot reply to topics in this forum
You cannot edit your posts in this forum
You cannot delete your posts in this forum
You cannot vote in polls in this forum
You cannot attach files in this forum
You can download files in this forum