Манжеклу / Гвоздеед / Гвоздоед / Mangeclous (Моше Мизрахи / Moshe Mizrahi) [1988, Франция, Драма, комедия, DVDRip] MVO (Первый Канал (поздний вариант)) + MVO (Первый Канал (ранний вариант)) + Original Fre

Reply to topic
DL-List and Torrent activity
Size:  2.06 GB   |    Registered:  3 years 1 month   |    Completed:  16 times

Seeder not seen: Never

 
   
 
 
Author Message

erzsebet.org ®

Longevity: 3 years 1 month

Posts: 47596

Post 02-Dec-2017 17:12

[Quote]

Манжеклу / Гвоздеед / Гвоздоед / Mangeclous
Страна: Франция
Жанр: Драма, комедия
Год выпуска: 1988
Продолжительность: 01:53:07
Перевод: Профессиональный (многоголосый закадровый) Первый Канал (поздний вариант)
Перевод 2: Профессиональный (многоголосый закадровый) Первый Канал (ранний вариант)
Субтитры: нет
Оригинальная аудиодорожка: французский
Режиссер: Моше Мизрахи / Moshe Mizrahi
В ролях: Пьер Ришар, Шарль Азнавур, Жан-Люк Бидо, Бернар Блие, Жан Кармэ, Жан-Пьер Кассель, Жак Дюфило, Самюэль Лабарт, Жак Вильре, Бернар Пиво, Алан Адер, Роберт Барр, Думитру Фурдуй, Фернан Берсе, Пьер Девильде, Эмманюэль Эскурру, Эдмон Франши, Кармело Петикс, Николас Хоутри, Жан Морель, Таня Сурсева.
Описание: 30-е годы XX века. Пятеро героев, известные как «доблестные французы», обнаруживают таинственную криптограмму, адресованную их кузену. Расшифровав письмо, «великолепная пятерка» отправляется на поиски сокровищ и приключений и в результате попадает в Швейцарию…
Доп. информация: Релиз
Большое спасибо за предоставленную видеокассету с поздним вариантом перевода yanina.tet
Оцифровка кассеты, синхронизация звука Urasiko
Рип сделан с двд http://erzsebet.org/forum/viewtopic.php?t=5443271 Большое спасибо pyatakov67
Сравнение скриншотов с раздачами http://erzsebet.org/forum/viewtopic.php?t=1040718 и http://erzsebet.org/forum/viewtopic.php?t=919499
http://screenshotcomparison.com/comparison/121423
http://screenshotcomparison.com/comparison/121424
Сэмпл: http://multi-up.com/1173061
Качество видео: DVDRip
Формат видео: AVI
Видео: 688x432 (1.59:1), 25 fps, XviD MPEG-4, ~2017 kbps avg, 0.27 bit/pixel
Аудио: Русский AC3 Dolby Digital, 2/0 (L,R) ch, 48 kHz, 192 kbps
Аудио 2: Русский AC3 Dolby Digital, 2/0 (L,R) ch, 48 kHz, 192 kbps
Аудио 3: Французский AC3 Dolby Digital, 2/0 (L,R) ch, 48 kHz, 192 kbps

MediaInfo

Общее
Полное имя : E:\Mangeclous(1988) DVDRip.avi
Формат : AVI
Формат/Информация : Audio Video Interleave
Профиль формата : OpenDML
Размер файла : 2,06 Гбайт
Продолжительность : 1 ч. 53 м.
Общий поток : 2601 Кбит/сек
Программа кодирования : VirtualDubMod 1.5.4.1 (build 2178/release)
Библиотека кодирования : VirtualDubMod build 2178/release
Видео
Идентификатор : 0
Формат : MPEG-4 Visual
Профиль формата : Advanced [email protected]
Параметр BVOP формата : 1
Параметр QPel формата : Нет
Параметр GMC формата : Без точки перехода
Параметр матрицы формата : Выборочная
Идентификатор кодека : XVID
Идентификатор кодека/Подсказка : XviD
Продолжительность : 1 ч. 53 м.
Битрейт : 2011 Кбит/сек
Ширина : 688 пикселей
Высота : 432 пикселя
Соотношение сторон : 16:10
Частота кадров : 25,000 кадров/сек
Цветовое пространство : YUV
Субдискретизация насыщенности : 4:2:0
Битовая глубина : 8 бит
Тип развёртки : Прогрессивная
Метод сжатия : С потерями
Бит/(Пиксели*Кадры) : 0.271
Размер потока : 1,59 Гбайт (77%)
Библиотека кодирования : XviD 64
Аудио #1
Идентификатор : 1
Формат : AC-3
Формат/Информация : Audio Coding 3
Расширение режима : CM (complete main)
Параметр Endianness формата : Big
Идентификатор кодека : 2000
Продолжительность : 1 ч. 53 м.
Вид битрейта : Постоянный
Битрейт : 192 Кбит/сек
Каналы : 2 канала
Расположение каналов : Front: L R
Частота : 48,0 КГц
Частота кадров : 31,250 кадров/сек (1536 spf)
Метод сжатия : С потерями
Размер потока : 155 Мбайт (7%)
Выравнивание : Разделение по промежуткам
Продолжительность промежутка : 96 мс. (2,40 видеокадра)
Время предзагрузки промежутка : 96 мс.
Аудио #2
Идентификатор : 2
Формат : AC-3
Формат/Информация : Audio Coding 3
Расширение режима : CM (complete main)
Параметр Endianness формата : Big
Идентификатор кодека : 2000
Продолжительность : 1 ч. 53 м.
Вид битрейта : Постоянный
Битрейт : 192 Кбит/сек
Каналы : 2 канала
Расположение каналов : Front: L R
Частота : 48,0 КГц
Частота кадров : 31,250 кадров/сек (1536 spf)
Метод сжатия : С потерями
Размер потока : 155 Мбайт (7%)
Выравнивание : Разделение по промежуткам
Продолжительность промежутка : 96 мс. (2,40 видеокадра)
Время предзагрузки промежутка : 96 мс.
Аудио #3
Идентификатор : 3
Формат : AC-3
Формат/Информация : Audio Coding 3
Расширение режима : CM (complete main)
Параметр Endianness формата : Big
Идентификатор кодека : 2000
Продолжительность : 1 ч. 53 м.
Вид битрейта : Постоянный
Битрейт : 192 Кбит/сек
Каналы : 2 канала
Расположение каналов : Front: L R
Частота : 48,0 КГц
Частота кадров : 31,250 кадров/сек (1536 spf)
Метод сжатия : С потерями
Размер потока : 155 Мбайт (7%)
Выравнивание : Разделение по промежуткам
Продолжительность промежутка : 96 мс. (2,40 видеокадра)
Время предзагрузки промежутка : 96 мс.

Скриншот c названием фильма

Скриншоты


-
Сообщения из этой темы [4 шт.] были выделены в отдельную тему Выделено из: Манжеклу / Гвоздеед / Гвоздоед / Mangeclous (Моше Мизрахи / Moshe Mizrahi) [1988, Франция, Драма, комедия, DVDRip] MVO (Первый Канал (поздний вариант) [5469744]
filolya

If your ratio falls below 0.3, you will not be able to download Torrents! More about the rating.

[erzsebet.pl].t756.torrent
Torrent: Registered [ 2017-12-02 17:13 ] · 289E083D667752E534DD6C420CEBC8C60F9C5EB4

Download .torrent

Download

11 KB

Status: checked
Completed: 16 times
Size: 2.06 GB
terms.php
[Profile] [PM]
Display posts:    
Reply to topic

Current time is: 22-Jan 06:07

All times are UTC ± 0



You cannot post new topics in this forum
You cannot reply to topics in this forum
You cannot edit your posts in this forum
You cannot delete your posts in this forum
You cannot vote in polls in this forum
You cannot attach files in this forum
You can download files in this forum