Семейка Аддамс. Воссоединение / Addams Family Reunion (Дэйв Пэйн / Dave Payne) [1998, США, комедия, семейный, фэнтези, DVB] Dub

Reply to topic
DL-List and Torrent activity
Size:  1.53 GB   |    Registered:  3 years 1 month   |    Completed:  16 times

Seeder not seen: Never

 
   
 
 
Author Message

erzsebet.org ®

Longevity: 3 years 1 month

Posts: 47596

Post 02-Dec-2017 17:12

[Quote]

Семейка Аддамс. Воссоединение / Addams Family Reunion- Страна: США
Жанр: комедия, семейный, фэнтези
Год выпуска: 1998
Продолжительность: 01:23:42-Перевод: Профессиональный (дублированный)
Субтитры: нет-Режиссер: Дэйв Пэйн / Dave Payne
В ролях: Тим Карри, Дэрил Ханна, Эд Бегли мл., Рэй Воллстон, Кевин МакКарти, Эстелль Харрис, Элис Гостли, Карел Стрюкен, Джерри Мессинг...- | Релиз: -Описание: Горестное известие поразило семью «вурдалаков» Адамсов: самые старшие - дедушка и бабушка - стали непонятным образом терять облик монстров.
Чтобы предотвратить несчастье, Аддамсы собираются на семейный совет, где начинается целый каскад бесовских шуток и невероятных выходок со стороны всех Аддамсов от мала до велика. Итак, семейство Аддамсов снова вместе...-Семпл: http://sendfile.su/1371190-Тип релиза: DVB
Контейнер: TS
Видео: 720x576 (4:3) @ 786x576, 25.000 fps, AVC, ~2294 Kbps, 0.221 bits/pixel
Аудио: Русский, 48.0 KHz, MPEG-1 Audio layer 2, 2 ch, 192 Kbps

MediaInfo

General
ID : 1 (0x1)
Complete name : Addams Family Reunion 1998 Disney Dub.ts
Format : MPEG-TS
File size : 1.53 GiB
Duration : 1 h 23 min
Overall bit rate mode : Variable
Overall bit rate : 2 617 kb/s
Video
ID : 1601 (0x641)
Menu ID : 1 (0x1)
Format : AVC
Format/Info : Advanced Video Codec
Format profile : [email protected]
Format settings : CABAC / 4 Ref Frames
Format settings, CABAC : Yes
Format settings, RefFrames : 4 frames
Format settings, GOP : M=8, N=24
Codec ID : 27
Duration : 1 h 23 min
Bit rate : 2 294 kb/s
Width : 720 pixels
Height : 576 pixels
Display aspect ratio : 4:3
Frame rate : 25.000 FPS
Standard : PAL
Color space : YUV
Chroma subsampling : 4:2:0
Bit depth : 8 bits
Scan type : MBAFF
Scan type, store method : Separated fields
Scan order : Top Field First
Bits/(Pixel*Frame) : 0.221
Stream size : 1.34 GiB (88%)
Color range : Limited
Color primaries : BT.601 PAL
Transfer characteristics : BT.470 System B, BT.470 System G
Matrix coefficients : BT.470 System B, BT.470 System G
Audio
ID : 1602 (0x642)
Menu ID : 1 (0x1)
Format : MPEG Audio
Format version : Version 1
Format profile : Layer 2
Codec ID : 3
Duration : 1 h 23 min
Bit rate mode : Constant
Bit rate : 192 kb/s
Channel(s) : 2 channels
Sampling rate : 48.0 kHz
Compression mode : Lossy
Stream size : 115 MiB (7%)
Language : Russian

If your ratio falls below 0.3, you will not be able to download Torrents! More about the rating.

[erzsebet.pl].t759.torrent
Torrent: Registered [ 2017-12-02 17:13 ] · 19E79C5021AAEAA5F5054D0636C4C766451DC448

Download .torrent

Download

16 KB

Status: checked
Completed: 16 times
Size: 1.53 GB
terms.php
[Profile] [PM]
Display posts:    
Reply to topic

Current time is: 17-Jan 19:29

All times are UTC ± 0



You cannot post new topics in this forum
You cannot reply to topics in this forum
You cannot edit your posts in this forum
You cannot delete your posts in this forum
You cannot vote in polls in this forum
You cannot attach files in this forum
You can download files in this forum