Спуск / The Descent (Нил Маршалл / Neil Marshall) [2005, Великобритания, триллер, ужасы, драма, BDRip] [AUS Transfer] AVO (Юрий Сербин)

Reply to topic
DL-List and Torrent activity
Size:  1.44 GB   |    Registered:  3 years 1 month   |    Completed:  16 times

Seeder not seen: Never

 
   
 
 
Author Message

erzsebet.org ®

Longevity: 3 years 1 month

Posts: 47596

Post 02-Dec-2017 17:24

[Quote]

Спуск / The Descent
Страна: Великобритания
Жанр: триллер, ужасы, драма
Год выпуска: 2005
Продолжительность: 01:39:24
Перевод: Авторский (одноголосый закадровый) Юрий Сербин
Субтитры: нет
Режиссер: Нил Маршалл / Neil Marshall
В ролях: Шона МакДональд, Натали Джексон Мендоса, Алекс Рид, Саския Малдер, МайАнна Бёринг, Нора-Джейн Нун, Оливер Милберн, Молли Кейлл, Крэйг Конуэй
Описание: Шесть путешественниц по разным причинам спешат навстречу приключениям. Им кажется, что исследование гротов и туннелей станет отличной встряской, позволит расслабиться и испытать новые ощущения во время отдыха. Своей основной целью они выбирают ранее не осмотренную людьми пещеру. Сразу после спуска туда проход обваливается, и девушкам приходится искать альтернативный выход. Вскоре выясняется, что острые каменные выступы, темнота, холод и узкие лазы - не самые страшные преграды. Пещера населена человекоподобными существами, возможно, потомками древнего племени, которые не рады незваным гостям. Они слепы, невероятно проворны и стремятся всеми силами защитить свою территорию. Выбраться к свету героиням мешают и внутренние конфликты: всплывают старые обиды и открываются тайны. Спасатели не знают, где искать альпинисток-любительниц, поэтому им остаётся надеяться лишь собственные силы и неимоверную удачу…
Доп. информация: Выражаю огромную благодарность Нордеру за синхронизацию звуковой дорожки. За дорогу благодарим инкогнитоГ.
Сэмпл: http://multi-up.com/1177568
Качество видео: BDRip (Исходник BDRemux 1080p)
Формат видео: AVI
Видео: XviD 73, 720x304, (2,35:1), 24,000 fps, 1617 Кбит/с, 8 бит, 0.30 bit/pixel
Аудио: Русский (АС3, 6 ch (Front: L C R, Side: L R, LFE), 48,0 KHz, 448 Kbps)

MediaInfo

Общее
Полное имя : H:\Фильмы на трекер\Спуск (триллер, ужасы, драма 2005 год).avi
Формат : AVI
Формат/Информация : Audio Video Interleave
Размер файла : 1,44 Гбайт
Продолжительность : 1 ч. 39 м.
Общий поток : 2075 Кбит/сек
Программа кодирования : VirtualDubMod 1.5.10.3 | www.virtualdub-fr.org || (build 2550/release)
Библиотека кодирования : VirtualDubMod build 2550/release
Видео
Идентификатор : 0
Формат : MPEG-4 Visual
Профиль формата : Advanced [email protected]
Параметр BVOP формата : 2
Параметр QPel формата : Нет
Параметр GMC формата : Без точки перехода
Параметр матрицы формата : Выборочная
Идентификатор кодека : XVID
Идентификатор кодека/Подсказка : XviD
Продолжительность : 1 ч. 39 м.
Битрейт : 1617 Кбит/сек
Ширина : 720 пикселей
Высота : 304 пикселя
Соотношение сторон : 2,35:1
Частота кадров : 24,000 кадра/сек
Цветовое пространство : YUV
Субдискретизация насыщенности : 4:2:0
Битовая глубина : 8 бит
Тип развёртки : Прогрессивная
Метод сжатия : С потерями
Бит/(Пиксели*Кадры) : 0.308
Размер потока : 1,12 Гбайт (78%)
Библиотека кодирования : XviD 73
Аудио
Идентификатор : 1
Формат : AC-3
Формат/Информация : Audio Coding 3
Расширение режима : CM (complete main)
Параметр Endianness формата : Big
Идентификатор кодека : 2000
Продолжительность : 1 ч. 39 м.
Вид битрейта : Постоянный
Битрейт : 448 Кбит/сек
Каналы : 6 каналов
Расположение каналов : Front: L C R, Side: L R, LFE
Частота : 48,0 КГц
Частота кадров : 31,250 кадров/сек (1536 spf)
Метод сжатия : С потерями
Размер потока : 319 Мбайт (22%)
Выравнивание : Разделение по промежуткам
Продолжительность промежутка : 42 мс. (1,00 видеокадр)
Время предзагрузки промежутка : 500 мс.

Скриншот c названием фильма

Скриншоты

If your ratio falls below 0.3, you will not be able to download Torrents! More about the rating.

[erzsebet.pl].t760.torrent
Torrent: Registered [ 2017-12-02 17:24 ] · D46F1338F71B4F0BC2E8DE230D893C5EBBA64BDC

Download .torrent

Download

15 KB

Status: checked
Completed: 16 times
Size: 1.44 GB
terms.php
[Profile] [PM]
Display posts:    
Reply to topic

Current time is: 20-Jan 21:45

All times are UTC ± 0



You cannot post new topics in this forum
You cannot reply to topics in this forum
You cannot edit your posts in this forum
You cannot delete your posts in this forum
You cannot vote in polls in this forum
You cannot attach files in this forum
You can download files in this forum