Дело о пеликанах / The Pelican Brief (Алан Дж. Пакула / Alan J. Pakula) [1993, США, Детективный триллер, BDRip] AVO (Леонид Володарский) + Original Eng

Reply to topic
DL-List and Torrent activity
Size:  2.19 GB   |    Registered:  3 years 1 month   |    Completed:  16 times

Seeder not seen: Never

 
   
 
 
Author Message

erzsebet.org ®

Longevity: 3 years 1 month

Posts: 47596

Post 02-Dec-2017 17:16

[Quote]

Дело о пеликанах / The Pelican Brief
«From the author of 'The Firm' and 'The Client' and the director of 'Presumed Innocent' and 'All The President's Men.'»
Страна: США
Жанр: Детективный триллер
Год выпуска: 1993
Продолжительность: 02:21:08
Перевод: Авторский (одноголосый закадровый) Леонид Володарский
Субтитры: нет
Оригинальная аудиодорожка: английский
Режиссер: Алан Дж. Пакула / Alan J. Pakula
В ролях: Джулия Робертс, Дензел Вашингтон, Сэм Шепард, Джон Хёрд, Тони Голдуин, Джеймс Сиккинг, Уильям Этертон, Роберт Калп, Стэнли Туччи, Хьюм Кронин
Описание: Студентка юридического факультета Дарби Шоу, узнав об убийстве двух членов Верховного суда США, начинает копаться в архивах и составляет свою версию того, кто может быть причастен к этому преступлению. Материалы, изложенные в досье, ее преподаватель и, по совместительству, любовник передает своему приятелю — консультанту ФБР. После чего преподавателя-любовника взрывают в собственной машине. А на Дарби начинается настоящая охота.
В поисках выхода она связывается с темнокожим журналистом влиятельной газеты Грэем Грантом и рассказывает ему содержание досье. Оказывается, дело имеет глубокую предысторию, связанную с нефтью и коррупцией. Нити этой истории тянутся в Белый Дом…
Доп. информация: Дорожка с Л. Володарским синхронизирована и наложена ale_x2008 при помощи Sony Vegas и VirtualDubMod.
За оцифрованную с VHS дорожку благодарим - Raptorio Rio
Релиз
Сэмпл: https://yadi.sk/i/o6MHkcJX3PR8qS
Качество видео: BDRip (источник: -DaRkY- / Blu-Ray Remux / 1080p)
Формат видео: AVI
Видео: XviD build 50, 720x304 (2.37:1), 23.976 fps, 1822 kbps avg, 0.35 bit/pixel
Аудио: AC3 Dolby Digital, 48000Hz 2/0 (L,R) ch (mono), 192.00 kbps avg
Аудио 2: AC3 Dolby Digital, 48000Hz 2/0 (L,R) ch, 192.00 kbps avg

MediaInfo

Дело о пеликанах - The Pelican Brief (by ale_x2008).avi
Format : AVI
Format/Info : Audio Video Interleave
Format profile : OpenDML
File size : 2.19 GiB
Duration : 2 h 21 min
Overall bit rate : 2 219 kb/s
Movie name : Delo.o.pelikanah.1993.RUS.BDRip.XviD.AC3.-HQCLUB
Director : Orbit
Writing application : VirtualDubMod 1.5.10.2 (build 2540/release)
Copyright : Edich2 | ale_x2008
Comment : erzsebet.org
Video
ID : 0
Format : MPEG-4 Visual
Format profile : Advanced [email protected]
Format settings, BVOP : 1
Format settings, QPel : No
Format settings, GMC : No warppoints
Format settings, Matrix : Custom
Codec ID : XVID
Codec ID/Hint : XviD
Duration : 2 h 21 min
Bit rate : 1 817 kb/s
Width : 720 pixels
Height : 304 pixels
Display aspect ratio : 2.35:1
Frame rate : 23.976 (24000/1001) FPS
Color space : YUV
Chroma subsampling : 4:2:0
Bit depth : 8 bits
Scan type : Progressive
Compression mode : Lossy
Bits/(Pixel*Frame) : 0.346
Stream size : 1.79 GiB (82%)
Writing library : XviD 1.2.1 (UTC 2008-12-04)
Audio #1
ID : 1
Format : AC-3
Format/Info : Audio Coding 3
Format settings, Endianness : Big
Codec ID : 2000
Duration : 2 h 21 min
Bit rate mode : Constant
Bit rate : 192 kb/s
Channel(s) : 2 channels
Channel positions : Front: L R
Sampling rate : 48.0 kHz
Frame rate : 31.250 FPS (1536 spf)
Bit depth : 16 bits
Compression mode : Lossy
Stream size : 194 MiB (9%)
Alignment : Split accross interleaves
Interleave, duration : 42 ms (1.00 video frame)
Interleave, preload duratio : 500 ms
Service kind : Complete Main
Audio #2
ID : 2
Format : AC-3
Format/Info : Audio Coding 3
Format settings, Endianness : Big
Codec ID : 2000
Duration : 2 h 21 min
Bit rate mode : Constant
Bit rate : 192 kb/s
Channel(s) : 2 channels
Channel positions : Front: L R
Sampling rate : 48.0 kHz
Frame rate : 31.250 FPS (1536 spf)
Bit depth : 16 bits
Compression mode : Lossy
Stream size : 194 MiB (9%)
Alignment : Split accross interleaves
Interleave, duration : 42 ms (1.00 video frame)
Interleave, preload duratio : 500 ms
Service kind : Complete Main

Скриншоты


If your ratio falls below 0.3, you will not be able to download Torrents! More about the rating.

[erzsebet.pl].t763.torrent
Torrent: Registered [ 2017-12-02 17:17 ] · 027AFF32D694A1C05E7F975ADC47623274942038

Download .torrent

Download

11 KB

Status: checked
Completed: 16 times
Size: 2.19 GB
terms.php
[Profile] [PM]
Display posts:    
Reply to topic

Current time is: 22-Jan 06:11

All times are UTC ± 0



You cannot post new topics in this forum
You cannot reply to topics in this forum
You cannot edit your posts in this forum
You cannot delete your posts in this forum
You cannot vote in polls in this forum
You cannot attach files in this forum
You can download files in this forum