Трясина / Le Marais (Ким Нгуйен / Kim Nguyen) [2002, Канада, драма, фэнтези, DVDRip] VO (allecs2010)

Reply to topic
DL-List and Torrent activity
Size:  1.45 GB   |    Registered:  3 years 1 month   |    Completed:  16 times

Seeder not seen: Never

 
   
 
 
Author Message

erzsebet.org ®

Longevity: 3 years 1 month

Posts: 47596

Post 02-Dec-2017 17:24

[Quote]

Трясина / Le Marais
Страна: Канада
Жанр: драма, фэнтези
Год выпуска: 2002
Продолжительность: 01:23:36
-
Перевод: Одноголосый закадровый allecs2010 по субтитрам tROXXY
Субтитры: нет
-
Режиссер: Ким Нгуйен / Kim Nguyen
В ролях: Григорий Гладий, Поль Амарани, Габриэль Гаскон, Дженнифер Морхауз, Джеймс Хайндмен, Карина Актуф, Александр Биспинг, Риал Боссе, Алекс Ивановичи, Фанни Ла Круа
-
Описание: После пропажи Жильбер, пожилой жительницы деревни подозрения её жителей падают на двух изгоев - Александра и Улисса, актёров собственного маленького лесного театра кукол, живущих уединённо в доме на болотах. В глазах жителей деревни эти двое необычных чужаков предстают демонами, которые непременно нужно сжечь, даже если те совершенно невиновны...
-
Доп. информация: Видео http://erzsebet.org/forum/viewtopic.php?t=4268671
-
Сэмпл: http://sendfile.su/1379189
-
Качество видео: DVDRip
Формат видео: AVI
Видео: XviD, 720x416, 23.976 fps, 2286 Kbps
Аудио: AC-3, 48.0 KHz, 192 Kbps, 2 channels

MediaInfo

General
Complete name : C:\Users\ALEX\Desktop\Фильмы\Le Marais.2002.RUS.DVDRip.XviD.AC3.avi
Format : AVI
Format/Info : Audio Video Interleave
File size : 1.45 GiB
Duration : 1 h 23 min
Overall bit rate : 2 487 kb/s
Writing application : VirtualDubMod 1.5.10.2 (build 2542/release)
Writing library : VirtualDubMod build 2542/release
Video
ID : 0
Format : MPEG-4 Visual
Format profile : Advanced [email protected]
Format settings : BVOP1
Format settings, BVOP : 1
Format settings, QPel : No
Format settings, GMC : No warppoints
Format settings, Matrix : Default (MPEG)
Codec ID : XVID
Codec ID/Hint : XviD
Duration : 1 h 23 min
Bit rate : 2 286 kb/s
Width : 720 pixels
Height : 416 pixels
Display aspect ratio : 1.731
Frame rate : 23.976 (24000/1001) FPS
Color space : YUV
Chroma subsampling : 4:2:0
Bit depth : 8 bits
Scan type : Progressive
Compression mode : Lossy
Bits/(Pixel*Frame) : 0.318
Stream size : 1.33 GiB (92%)
Writing library : XviD 1.2.1 (UTC 2008-12-04)
Audio
ID : 1
Format : AC-3
Format/Info : Audio Coding 3
Format settings, Endianness : Big
Codec ID : 2000
Duration : 1 h 23 min
Bit rate mode : Constant
Bit rate : 192 kb/s
Channel(s) : 2 channels
Channel positions : Front: L R
Sampling rate : 48.0 kHz
Frame rate : 31.250 FPS (1536 SPF)
Bit depth : 16 bits
Compression mode : Lossy
Stream size : 115 MiB (8%)
Alignment : Split accross interleaves
Interleave, duration : 42 ms (1.00 video frame)
Interleave, preload duratio : 500 ms
Service kind : Complete Main

Скриншоты

If your ratio falls below 0.3, you will not be able to download Torrents! More about the rating.

[erzsebet.pl].t773.torrent
Torrent: Registered [ 2017-12-02 17:24 ] · 1B977FF263A39C15D6AD208376B933D5BD80ADE1

Download .torrent

Download

15 KB

Status: checked
Completed: 16 times
Size: 1.45 GB
terms.php
[Profile] [PM]
Display posts:    
Reply to topic

Current time is: 18-Jan 01:36

All times are UTC ± 0



You cannot post new topics in this forum
You cannot reply to topics in this forum
You cannot edit your posts in this forum
You cannot delete your posts in this forum
You cannot vote in polls in this forum
You cannot attach files in this forum
You can download files in this forum