Киборг / Cyborg (Альберт Пьюн / Albert Pyun) [1989, США, фантастика, боевик, BDRip] AVO (Леонид Володарский - поздний)

Reply to topic
DL-List and Torrent activity
Size:  1.45 GB   |    Registered:  3 years 1 month   |    Completed:  16 times

Seeder not seen: Never

 
   
 
 
Author Message

erzsebet.org ®

Longevity: 3 years 1 month

Posts: 47596

Post 02-Dec-2017 17:12

[Quote]

Киборг / Cyborg
Страна: США
Жанр: фантастика, боевик
Год выпуска: 1989
Продолжительность: 01:26:24
Перевод: Авторский (одноголосый закадровый) Леонид Володарский (поздний)
Субтитры: нет
Режиссер: Альберт Пьюн / Albert Pyun
В ролях: Жан-Клод Ван Дамм, Дебора Рихтер, Винсент Клин, Алекс Дэниелс, Дэйл Хэддон, Блэйз Лунг, Ральф Мёллер, Хейли Петерсон, Джексон "Скала" Пинкни
Описание: В Америке 21-го века царят социальная анархия и чума, несущая смерть, и ее быстро охватывает воровской беспредел. Перл Профет, симпатичная женщина-робот, собирает вещества для создания вакцины, способной спасти человечество. Людоед Флэш Пайротс захватывает Перл в плен, решив использовать вакцину в своих корыстных планах по обретению мирового господства. Спасти человечество от грозящей опасности и восхитительную Перл по силам лишь героическому Гибсону Рикенбакеру, обладающему стальными кулаками и мечом...
Доп. информация: Данный (поздний) перевод Леонида Володарского впервые на трекере ...
Сэмпл: http://multi-up.com/1172817
Качество видео: BDRip (Исходник BDRemux 1080p)
Формат видео: AVI
Видео: XviD 73, 704x384, (1,85:1), 23,976 fps, 2172 Кбит/с, 8 бит, 0.32 bit/pixel
Аудио: Русский (АС3, 2 ch (Front: L R), 48,0 KHz, 224 Kbps)

MediaInfo

Общее
Полное имя : D:\Видеофильмы\В и д е о\Киборг (фантастика, боевик 1989 год).avi
Формат : AVI
Формат/Информация : Audio Video Interleave
Размер файла : 1,45 Гбайт
Продолжительность : 1 ч. 26 м.
Общий поток : 2405 Кбит/сек
Программа кодирования : VirtualDubMod 1.5.10.3 | www.virtualdub-fr.org || (build 2550/release)
Библиотека кодирования : VirtualDubMod build 2550/release
Видео
Идентификатор : 0
Формат : MPEG-4 Visual
Профиль формата : Advanced [email protected]
Параметр BVOP формата : 2
Параметр QPel формата : Нет
Параметр GMC формата : Без точки перехода
Параметр матрицы формата : Выборочная
Идентификатор кодека : XVID
Идентификатор кодека/Подсказка : XviD
Продолжительность : 1 ч. 26 м.
Битрейт : 2172 Кбит/сек
Ширина : 720 пикселей
Высота : 384 пикселя
Соотношение сторон : 1,85:1
Частота кадров : 23,976 (23976/1000) кадра/сек
Цветовое пространство : YUV
Субдискретизация насыщенности : 4:2:0
Битовая глубина : 8 бит
Тип развёртки : Прогрессивная
Метод сжатия : С потерями
Бит/(Пиксели*Кадры) : 0.328
Размер потока : 1,31 Гбайт (90%)
Библиотека кодирования : XviD 73
Аудио
Идентификатор : 1
Формат : AC-3
Формат/Информация : Audio Coding 3
Расширение режима : CM (complete main)
Параметр Endianness формата : Big
Идентификатор кодека : 2000
Продолжительность : 1 ч. 26 м.
Вид битрейта : Постоянный
Битрейт : 224 Кбит/сек
Каналы : 2 канала
Расположение каналов : Front: L R
Частота : 48,0 КГц
Частота кадров : 31,250 кадров/сек (1536 spf)
Метод сжатия : С потерями
Размер потока : 138 Мбайт (9%)
Выравнивание : Разделение по промежуткам
Продолжительность промежутка : 42 мс. (1,00 видеокадр)
Время предзагрузки промежутка : 500 мс.

Скриншот c названием фильма

Скриншоты

If your ratio falls below 0.3, you will not be able to download Torrents! More about the rating.

[erzsebet.pl].t774.torrent
Torrent: Registered [ 2017-12-02 17:13 ] · B9481B419928F7E2F03ADA5B52A6B2696F39B769

Download .torrent

Download

15 KB

Status: checked
Completed: 16 times
Size: 1.45 GB
terms.php
[Profile] [PM]
Display posts:    
Reply to topic

Current time is: 21-Jan 17:53

All times are UTC ± 0



You cannot post new topics in this forum
You cannot reply to topics in this forum
You cannot edit your posts in this forum
You cannot delete your posts in this forum
You cannot vote in polls in this forum
You cannot attach files in this forum
You can download files in this forum