Дом восковых фигур / House of Wax (Жауме Серра / Jaume Collet-Serra) [2005, США, ужасы, триллер, BDRip] AVO (Юрий Живов)

Reply to topic
DL-List and Torrent activity
Size:  2.06 GB   |    Registered:  3 years 1 month   |    Completed:  16 times

Seeder not seen: Never

 
   
 
 
Author Message

erzsebet.org ®

Longevity: 3 years 1 month

Posts: 47596

Post 02-Dec-2017 17:24

[Quote]

Дом восковых фигур / House of Wax
Страна: США
Жанр: ужасы, триллер
Год выпуска: 2005
Продолжительность: 01:52:44
Перевод: Авторский (одноголосый закадровый) Юрий Живов
Субтитры: нет
Режиссер: Жауме Серра / Jaume Collet-Serra
В ролях: Элиша Катберт, Чад Майкл Мюррэй, Брайан Ван Холт, Пэрис Хилтон, Джаред Падалеки, Джон Абрахамс, Роберт Ричард, Драгици Деберт, Томас Адамсон
Описание: Четыре парня и две девушки остановились на ночлег по пути на матч. Утром они обнаружили пропажу некоторых вещей и испорченный ремень в двигателе автомобиля. Они решают разделиться, чтобы найти необходимые запчасти. Водитель грузовика подвозит двоих из них, Карли и Уэйда, до заправки. Пока они ждут хозяина Бо, парочка замечает музей с восковыми фигурами. Осмотревшись, они обнаруживают, что и само здание сделано из воска. Появившийся Бо, приглашает Уэйда к себе, пока Карли ждёт в грузовике: но молодому человеку не суждено вернуться: брат Бо, Винсент, вкалывает ему наркотик и заживо заливает воском, делая из него новую фигуру для своей коллекции. Карли пытается бежать, но Бо запирает её в подвале заправки. Девушка лишь успела понять, что все жители города давно убиты и залиты воском. В это время их друзья приезжают на место условленной встречи и также оказываются втянутыми в бесчеловечную и жуткую игру братьев-маньяков....
Доп. информация: Выражаю огромную благодарность Нордеру за синхронизацию звуковой дорожки. За дорогу благодарим инкогнитоГ.
Сэмпл: http://multi-up.com/1177161
Качество видео: BDRip (Исходник BDRemux 1080p)
Формат видео: AVI
Видео: XviD 73, 720x400, (16:9), 23,976 fps, 2154 Кбит/с, 8 бит, 0.31 bit/pixel
Аудио: Русский (АС3, 6 ch (Front: L C R, Side: L R, LFE), 48,0 KHz, 448 Kbps)

MediaInfo

Общее
Полное имя : H:\Фильмы на трекер\Дом восковых фигур (ужасы, триллер 2005 год).avi
Формат : AVI
Формат/Информация : Audio Video Interleave
Профиль формата : OpenDML
Размер файла : 2,06 Гбайт
Продолжительность : 1 ч. 52 м.
Общий поток : 2615 Кбит/сек
Программа кодирования : VirtualDubMod 1.5.10.2 (build 2540/release)
Библиотека кодирования : VirtualDubMod build 2540/release
Видео
Идентификатор : 0
Формат : MPEG-4 Visual
Профиль формата : Advanced [email protected]
Параметр BVOP формата : 2
Параметр QPel формата : Нет
Параметр GMC формата : Без точки перехода
Параметр матрицы формата : Выборочная
Идентификатор кодека : XVID
Идентификатор кодека/Подсказка : XviD
Продолжительность : 1 ч. 52 м.
Битрейт : 2154 Кбит/сек
Ширина : 720 пикселей
Высота : 400 пикселей
Соотношение сторон : 16:9
Частота кадров : 23,976 (23976/1000) кадра/сек
Цветовое пространство : YUV
Субдискретизация насыщенности : 4:2:0
Битовая глубина : 8 бит
Тип развёртки : Прогрессивная
Метод сжатия : С потерями
Бит/(Пиксели*Кадры) : 0.312
Размер потока : 1,70 Гбайт (82%)
Библиотека кодирования : XviD 73
Аудио
Идентификатор : 1
Формат : AC-3
Формат/Информация : Audio Coding 3
Расширение режима : CM (complete main)
Параметр Endianness формата : Big
Идентификатор кодека : 2000
Продолжительность : 1 ч. 52 м.
Вид битрейта : Постоянный
Битрейт : 448 Кбит/сек
Каналы : 6 каналов
Расположение каналов : Front: L C R, Side: L R, LFE
Частота : 48,0 КГц
Частота кадров : 31,250 кадров/сек (1536 spf)
Метод сжатия : С потерями
Размер потока : 361 Мбайт (17%)
Выравнивание : Разделение по промежуткам
Продолжительность промежутка : 42 мс. (1,00 видеокадр)
Время предзагрузки промежутка : 500 мс.

Скриншот c названием фильма

Скриншоты

If your ratio falls below 0.3, you will not be able to download Torrents! More about the rating.

[erzsebet.pl].t775.torrent
Torrent: Registered [ 2017-12-02 17:24 ] · 1C9FB9C0D3C87D0CDDF7D4FD7090370E4AD8D993

Download .torrent

Download

11 KB

Status: checked
Completed: 16 times
Size: 2.06 GB
terms.php
[Profile] [PM]
Display posts:    
Reply to topic

Current time is: 28-Jan 08:15

All times are UTC ± 0



You cannot post new topics in this forum
You cannot reply to topics in this forum
You cannot edit your posts in this forum
You cannot delete your posts in this forum
You cannot vote in polls in this forum
You cannot attach files in this forum
You can download files in this forum