Возвращение Циско Кида / Return of the Cisco Kid (Херберт А. Лидз / Herbert I. Leeds) [1939, США, вестерн, DVDRip] DVO (Студия LR-Project) + Sub Rus (Свен Железнов) + Original Eng

Reply to topic
DL-List and Torrent activity
Size:  1.37 GB   |    Registered:  3 years 1 month   |    Completed:  16 times

Seeder not seen: Never

 
   
 
 
Author Message

erzsebet.org ®

Longevity: 3 years 1 month

Posts: 47596

Post 02-Dec-2017 15:57

[Quote]

Возвращение Циско Кида / Return of the Cisco Kid
Страна: США
Студия: Twentieth Century Fox
Жанр: вестерн
Год выпуска: 1939
Продолжительность: 01:10:54
Перевод: Любительский (двухголосый закадровый) - Артем Мосин-Щепачев & Елена Ершова (студия LR-Project)
Субтитры: русские(Свен Железнов)
Оригинальная аудиодорожка: английский
Режиссер: Херберт А. Лидз / Herbert I. Leeds
В ролях: Уорнер Бакстер, Линн Бари, Сесар Ромеро, Генри Халл, Кэйн Ричмонд, С. Генри Гордон, Роберт Бэррат, Крис-Пин Мартин, Адриан Моррис, Соледад Хименес ...
Описание: Второй официальный сиквел оскароносного фильма "В Старой Аризоне". Кинолента рассказывает о непростом пути знаменитого бандита Циско Кида из Мексики в США. Это последняя картина с Уорнером Бакстером в роли благородного бандита. На этот раз предметом обожания любвеобильного разбойника стала внучка отставного полковника Конфедерации Энн Карвер в исполнении Линн Бари.
Доп. информация: Рип сделан из этого DVD5-- --Фильм переведен и озвучен специально для: 7букв Вестерн / группа Джесси Джеймса.
Отдельная благодарность Alassea за предоставленную русскую звуковую дорожку и субтитры.
Перевод: Свен Железнов.
Закадровый текст: Артем Мосин-Щепачев & Елена Ершова - (студия LR-Project).--The Return of the Cisco Kid_(1939)_DVDRip_Sample_.avi--Качество видео: DVDRip
Формат видео: AVI
Видео: 640x480 (1.33:1), 23.976 fps, XviD build 73 ~2362 kbps avg, 0.32 bit/pixel
Аудио 1: 48 kHz, AC3 Dolby Digital, 2/0 (L,R) ch, ~192 kbps, Русский
Аудио 2: 48 kHz, AC3 Dolby Digital, 2/0 (L,R) ch, ~192 kbps, Английский --- [Отдельно]
Формат субтитров: softsub (SRT)

AviInfo

File: The Return of the Cisco Kid_(1939)_DVDRip_.avi
Title: The Return of the Cisco Kid (1939)
Author: Herbert I. Leeds
Copyleft: Ripped_by_rjhlb777
Genre: Western
Category: Movie
Comment: DVO (Артем Мосин-Щепачев & Елена Ершова - [студия LR-Project]) + Original ENG
FileSize: 1400.37 Mb ( 1 468 393 472 bytes )
Play length: 01:10:54.546 (102007 frames)
Subtitles: c_RUS_(Sven Zheleznov)_ [Song]_, RUS_(Sven Zheleznov)_ (SubRip format)
Video: 640x480 (1.33:1), 23.976 fps, XviD build 73 ~2362 kbps avg, 0.32 bit/pixel
Audio #1: 48 kHz, AC3 Dolby Digital, 2/0 (L,R) ch, ~192 kbps
Audio #2: 48 kHz, AC3 Dolby Digital, 2/0 (L,R) ch, ~192 kbps

MediaInfo

General
Complete name : I:\111\z_D_Disk\Return of the Cisco Kid_(1939)_DVDRip_\The Return of the Cisco Kid_(1939)_DVDRip_.avi
Format : AVI
Format/Info : Audio Video Interleave
File size : 1.37 GiB
Duration : 1 h 10 min
Overall bit rate : 2 761 kb/s
Movie name : The Return of the Cisco Kid (1939)
Director : Herbert I. Leeds
Genre : Western
Writing application : VirtualDubMod 1.5.10.3 | www.virtualdub-fr.org || (build 2550/release)
Original source form/Name : Movie
Copyright : Ripped_by_rjhlb777
Comment : DVO (Артем Мосин-Щепачев & Елена Ершова - [студия LR-Project]) + Original ENG
Video
ID : 0
Format : MPEG-4 Visual
Format profile : Advanced [email protected]
Format settings, BVOP : 2
Format settings, QPel : No
Format settings, GMC : No warppoints
Format settings, Matrix : Custom
Codec ID : XVID
Codec ID/Hint : XviD
Duration : 1 h 10 min
Bit rate : 2 363 kb/s
Width : 640 pixels
Height : 480 pixels
Display aspect ratio : 4:3
Frame rate : 23.976 (24000/1001) FPS
Color space : YUV
Chroma subsampling : 4:2:0
Bit depth : 8 bits
Scan type : Progressive
Compression mode : Lossy
Bits/(Pixel*Frame) : 0.321
Stream size : 1.17 GiB (86%)
Writing library : XviD 73
Audio #1
ID : 1
Format : AC-3
Format/Info : Audio Coding 3
Mode extension : CM (complete main)
Format settings, Endianness : Big
Codec ID : 2000
Duration : 1 h 10 min
Bit rate mode : Constant
Bit rate : 192 kb/s
Channel(s) : 2 channels
Channel positions : Front: L R
Sampling rate : 48.0 kHz
Frame rate : 31.250 FPS (1536 spf)
Bit depth : 16 bits
Compression mode : Lossy
Stream size : 97.4 MiB (7%)
Alignment : Split accross interleaves
Interleave, duration : 42 ms (1.00 video frame)
Interleave, preload duratio : 500 ms
Audio #2
ID : 2
Format : AC-3
Format/Info : Audio Coding 3
Mode extension : CM (complete main)
Format settings, Endianness : Big
Codec ID : 2000
Duration : 1 h 10 min
Bit rate mode : Constant
Bit rate : 192 kb/s
Channel(s) : 2 channels
Channel positions : Front: L R
Sampling rate : 48.0 kHz
Frame rate : 31.250 FPS (1536 spf)
Bit depth : 16 bits
Compression mode : Lossy
Stream size : 97.4 MiB (7%)
Alignment : Split accross interleaves
Interleave, duration : 42 ms (1.00 video frame)
Interleave, preload duratio : 500 ms

If your ratio falls below 0.3, you will not be able to download Torrents! More about the rating.

[erzsebet.pl].t78.torrent
Torrent: Registered [ 2017-12-02 15:58 ] · 0955429646BBE89AA5FD8F1604F67D67FBD12AA0

Download .torrent

Download

14 KB

Status: checked
Completed: 16 times
Size: 1.37 GB
terms.php
[Profile] [PM]
Display posts:    
Reply to topic

Current time is: 26-Jan 09:01

All times are UTC ± 0



You cannot post new topics in this forum
You cannot reply to topics in this forum
You cannot edit your posts in this forum
You cannot delete your posts in this forum
You cannot vote in polls in this forum
You cannot attach files in this forum
You can download files in this forum