Антония и Джейн / Antonia and Jane (Бибан Кидрон / Beeban Kidron) [1990, Великобритания, мелодрама, VHSRip] AVO (Прямостанов) + Original Eng

Reply to topic
DL-List and Torrent activity
Size:  792 MB   |    Registered:  3 years 1 month   |    Completed:  16 times

Seeder not seen: Never

 
   
 
 
Author Message

erzsebet.org ®

Longevity: 3 years 1 month

Posts: 47596

Post 02-Dec-2017 17:12

[Quote]

Антония и Джейн / Antonia and Jane
[BBC]

Страна: Великобритания
Жанр: мелодрама
Год выпуска: 1990
Продолжительность: 01:05:38
Перевод: Авторский (одноголосый закадровый) Павла Прямостанова
Субтитры: нет
Оригинальная аудиодорожка: английский
Режиссер: Бибан Кидрон / Beeban Kidron
В ролях: Имелда Стонтон /Imelda Staunton/, Саския Ривз /Saskia Reeves/, Патриция Левентон /Patricia Leventon/, Альфред Хоффман /Alfred Hoffman/, Гарри Розенталь /Harry Rosenthal/
Описание: о двух подругах с разными характерами и образом жизни
Доп. информация: рип прислал dffdfdfd; перевод Прямостанова оцифровал и подготовил karlll
~Сэмпл~
Качество видео: VHSRip
Формат видео: AVI
Видео: 640x464 (1.38:1), 25 fps, XviD MPEG-4 ~1338 kbps avg, 0.18 bit/pixel
Аудио 1: 48 kHz, AC3 Dolby Digital, 2/0 (L,R) ch, ~192 kbps - рус
Аудио 2: 48 kHz, MPEG Layer 3, 2 ch, ~137.86 kbps avg = анг

MediaInfo

Формат : AVI
Формат/Информация : Audio Video Interleave
Размер файла : 792 Мбайт
Продолжительность : 1 ч. 5 м.
Режим общего битрейта : Переменный
Общий поток : 1688 Кбит/сек
Название фильма : Antonia and Jane (1990)
Программа кодирования : VirtualDubMod 1.5.10.3 | www.virtualdub-fr.org || (build 2550/release)
Библиотека кодирования : VirtualDubMod build 2550/release
Правообладатель : Karl's Bayou Country
Видео
Идентификатор : 0
Формат : MPEG-4 Visual
Профиль формата : Advanced [email protected]
Параметр BVOP формата : 1
Параметр QPel формата : Нет
Параметр GMC формата : Без точки перехода
Параметр матрицы формата : Default (H.263)
Режим смешивания : Сжатый битовый поток
Идентификатор кодека : XVID
Идентификатор кодека/Подсказка : XviD
Продолжительность : 1 ч. 5 м.
Битрейт : 1340 Кбит/сек
Ширина : 640 пикселей
Высота : 464 пикселя
Соотношение сторон : 1,379
Частота кадров : 25,000 кадров/сек
Цветовое пространство : YUV
Субдискретизация насыщенности : 4:2:0
Битовая глубина : 8 бит
Тип развёртки : Прогрессивная
Метод сжатия : С потерями
Бит/(Пиксели*Кадры) : 0.181
Размер потока : 629 Мбайт (79%)
Библиотека кодирования : XviD 1.1.2 (UTC 2006-11-01)
Аудио #1
Идентификатор : 1
Формат : AC-3
Формат/Информация : Audio Coding 3
Расширение режима : CM (complete main)
Параметр Endianness формата : Big
Идентификатор кодека : 2000
Продолжительность : 1 ч. 5 м.
Вид битрейта : Постоянный
Битрейт : 192 Кбит/сек
Каналы : 2 канала
Расположение каналов : Front: L R
Частота : 48,0 КГц
Битовая глубина : 16 бит
Метод сжатия : С потерями
Размер потока : 90,1 Мбайт (11%)
Выравнивание : Разделение по промежуткам
Продолжительность промежутка : 40 мс. (1,00 видеокадр)
Время предзагрузки промежутка : 500 мс.
Заголовок : Прямостанов
Аудио #2
Идентификатор : 2
Формат : MPEG Audio
Версия формата : Version 1
Профиль формата : Layer 3
Режим : Joint stereo
Расширение режима : MS Stereo
Идентификатор кодека : 55
Идентификатор кодека/Подсказка : MP3
Продолжительность : 1 ч. 5 м.
Вид битрейта : Переменный
Битрейт : 138 Кбит/сек
Номинальный битрейт : 128 Кбит/сек
Каналы : 2 канала
Частота : 48,0 КГц
Метод сжатия : С потерями
Размер потока : 64,7 Мбайт (8%)
Выравнивание : Соединение по промежуткам
Продолжительность промежутка : 24 мс. (0,60 видеокадр)
Время предзагрузки промежутка : 498 мс.
Заголовок : english
Библиотека кодирования : LAME3.90.
Настройки программы : -m j -V 4 -q 2 -lowpass 17.6 --abr 128

Скриншоты

If your ratio falls below 0.3, you will not be able to download Torrents! More about the rating.

[erzsebet.pl].t780.torrent
Torrent: Registered [ 2017-12-02 17:13 ] · 05C9A7A37D461BCD438D0C4F3D3061BAC3CA44C0

Download .torrent

Download

16 KB

Status: checked
Completed: 16 times
Size: 792 MB
terms.php
[Profile] [PM]
Display posts:    
Reply to topic

Current time is: 16-Jan 18:37

All times are UTC ± 0



You cannot post new topics in this forum
You cannot reply to topics in this forum
You cannot edit your posts in this forum
You cannot delete your posts in this forum
You cannot vote in polls in this forum
You cannot attach files in this forum
You can download files in this forum