Головоломка / Загадка / Puzzle (Льюис Хосеп Комерон / Lluís Josep Comerón) [1986, Испания, боевик, VHSRip] AVO (Антон Алексеев) + hardsub (chi)

Reply to topic
DL-List and Torrent activity
Size:  1.37 GB   |    Registered:  3 years 1 month   |    Completed:  16 times

Seeder not seen: Never

 
   
 
 
Author Message

erzsebet.org ®

Longevity: 3 years 1 month

Posts: 47596

Post 02-Dec-2017 17:12

[Quote]

Головоломка / Загадка / Puzzle
Страна: Испания
Жанр: боевик
Год выпуска: 1986
Продолжительность: 01:30:59
Перевод: Авторский (одноголосый закадровый) Антон Алексеев
Субтитры: китайские (хардсаб)
Режиссер: Льюис Хосеп Комерон / Lluís Josep Comerón
В ролях: Паткси Андион, Карме Элиас, Эктор Альтерио /Hector Alterio/, Антонио Бандерас /Antonio Banderas/, Хоан Мираллес, Марта Молинс, Рафаэль Англада, Монсеррат Хулио, Мунтса Алканьис, Хосе Мингелл, Джемма Льебо
Описание: Трое бандитов великолепно продумали и осуществили ограбление банка. Во время операции им пришлось застрелить охранника, была вызвана полиция. Тогда бандиты взяли в заложники мужчину и женщину и привезли их на заранее снятую квартиру, где, связав, положили под их стулья бомбу. Она должна была сработать при любом резком движении. Затем они сфотографировали заложников, сообщили об этом в полицию и потребовали машину и вертолет. Рассказывать, чем закончатся эти драматические для всех участников события, я не стану - не интересно будет смотреть. Антонио Бандерас в роли одного из преступников, среди которых начались раздоры. Под квартирой, где все это происходило, сидел инвалид и собирал головоломку. (Иванов М.)
Доп. информация: Оцифровка VHS (личный архив) и получение VHSRip alenavova
Эксклюзив для erzsebet.org. При размещении данного релиза на других сайтах ссылка на автора alenavova обязательна.
Релиз
Сэмпл: https://yadi.sk/i/lGQ-ZWY83NuAf4
Качество видео: VHSRip
Формат видео: AVI
Видео: 704x480 (1.47:1), 25 fps, XviD build 73 ~1949 kbps avg, 0.23 bit/pixel
Аудио: 48 kHz, AC3 Dolby Digital, 2/0 (L,R) ch, ~192 kbps

MediaInfo

Головоломка - Puzzle (by alenavova).avi
Format : AVI
Format/Info : Audio Video Interleave
File size : 1.37 GiB
Duration : 1 h 30 min
Overall bit rate : 2 151 kb/s
Movie name : Головоломка - Puzzle (by alenavova)
Director : by alenavova
Writing application : VirtualDubMod 1.5.10.3 | www.virtualdub-fr.org || (build 2550/release)
Copyright : Edich2
Comment : erzsebet.org
Video
ID : 0
Format : MPEG-4 Visual
Format profile : Advanced [email protected]
Format settings, BVOP : 2
Format settings, QPel : No
Format settings, GMC : No warppoints
Format settings, Matrix : Custom
Codec ID : XVID
Codec ID/Hint : XviD
Duration : 1 h 30 min
Bit rate : 1 950 kb/s
Width : 704 pixels
Height : 480 pixels
Display aspect ratio : 3:2
Frame rate : 25.000 FPS
Color space : YUV
Chroma subsampling : 4:2:0
Bit depth : 8 bits
Scan type : Progressive
Compression mode : Lossy
Bits/(Pixel*Frame) : 0.231
Stream size : 1.24 GiB (91%)
Writing library : XviD 73
Audio
ID : 1
Format : AC-3
Format/Info : Audio Coding 3
Format settings, Endianness : Big
Codec ID : 2000
Duration : 1 h 30 min
Bit rate mode : Constant
Bit rate : 192 kb/s
Channel(s) : 2 channels
Channel positions : Front: L R
Sampling rate : 48.0 kHz
Frame rate : 31.250 FPS (1536 spf)
Bit depth : 16 bits
Compression mode : Lossy
Stream size : 125 MiB (9%)
Alignment : Split accross interleaves
Interleave, duration : 40 ms (1.00 video frame)
Interleave, preload duratio : 500 ms
Service kind : Complete Main

Скриншоты



If your ratio falls below 0.3, you will not be able to download Torrents! More about the rating.

[erzsebet.pl].t786.torrent
Torrent: Registered [ 2017-12-02 17:13 ] · D739A590DB929BB35EF8DFB7BBEF39F35C64214F

Download .torrent

Download

14 KB

Status: checked
Completed: 16 times
Size: 1.37 GB
terms.php
[Profile] [PM]
Display posts:    
Reply to topic

Current time is: 27-Jan 13:30

All times are UTC ± 0



You cannot post new topics in this forum
You cannot reply to topics in this forum
You cannot edit your posts in this forum
You cannot delete your posts in this forum
You cannot vote in polls in this forum
You cannot attach files in this forum
You can download files in this forum