Признание Райли / Outing Riley (Пит Джонс / Pete Jones) [2004, США, комедия, гей-тема, DVDRip] AVO (Сергей Кузнецов)

Reply to topic
DL-List and Torrent activity
Size:  739 MB   |    Registered:  3 years 1 month   |    Completed:  16 times

Seeder not seen: Never

 
   
 
 
Author Message

erzsebet.org ®

Longevity: 3 years 1 month

Posts: 47596

Post 02-Dec-2017 17:24

[Quote]

Признание РайлиOuting Riley Страна: США
Жанр: комедия, гей-тема
Год выпуска: 2004
Продолжительность: 01:28:48-Перевод: Авторский (одноголосый закадровый) Сергей Кузнецов
Субтитры: нет-Режиссер: Пит Джонс / Pete Jones
В ролях: Нэйтан Филлион, Пит Джонс, Стоуни Вэстмолэнд, Дев Кеннеди, Джули Перл, Боб Райли, Майкл МакДональд, Дэна Линн Джилхули-Описание:-Главный герой фильма — Бобби Райли — младший сын в ирландской семье, в которой все её члены из поколения в поколение были католиками, ну и он соответственно тоже. Но кроме всего прочего он — гей! Он-то сам может это принять, но вот 3 его брата… Они даже не в курсе! А между тем их отношения с младшеньким, Бобби, очень тесные с детства, но в основном концентрируются на спорте, выпивке, глупых шутках, но не касаются личной жизни Бобби.-Сэмпл-Качество видео: DVDRip
Формат видео: AVI
Видео: 576x320 (1.80:1), 23.976 fps, XviD Final 1.1 (build 41) ~962 kbps avg, 0.22 bit/pixel
Аудио: 48 kHz, AC3 Dolby Digital, 2/0 (L,R) ch, ~192 kbps

MediaInfo

General
Complete name : G:\Outing.Riley.Kuznecov.avi
Format : AVI
Format/Info : Audio Video Interleave
File size : 739 MiB
Duration : 1h 28mn
Overall bit rate : 1 164 Kbps
Video
ID : 0
Format : MPEG-4 Visual
Format profile : Advanced [email protected]
Format settings, BVOP : 1
Format settings, QPel : No
Format settings, GMC : No warppoints
Format settings, Matrix : Default (H.263)
Codec ID : XVID
Codec ID/Hint : XviD
Duration : 1h 28mn
Bit rate : 963 Kbps
Width : 576 pixels
Height : 320 pixels
Display aspect ratio : 16:9
Frame rate : 23.976 fps
Color space : YUV
Chroma subsampling : 4:2:0
Bit depth : 8 bits
Scan type : Progressive
Compression mode : Lossy
Bits/(Pixel*Frame) : 0.218
Stream size : 611 MiB (83%)
Writing library : XviD 1.1.0 (UTC 2005-11-22)
Audio
ID : 1
Format : AC-3
Format/Info : Audio Coding 3
Mode extension : CM (complete main)
Format settings, Endianness : Big
Codec ID : 2000
Duration : 1h 28mn
Bit rate mode : Constant
Bit rate : 192 Kbps
Channel(s) : 2 channels
Channel positions : Front: L R
Sampling rate : 48.0 KHz
Bit depth : 16 bits
Compression mode : Lossy
Stream size : 122 MiB (16%)
Alignment : Split accross interleaves
Interleave, duration : 42 ms (1.00 video frame)
Interleave, preload duration : 500 ms

Скриншот c названием фильма

Скриншоты

If your ratio falls below 0.3, you will not be able to download Torrents! More about the rating.

[erzsebet.pl].t787.torrent
Torrent: Registered [ 2017-12-02 17:24 ] · B5351975CD4A3E9503817FA69E657634F28DB6F8

Download .torrent

Download

15 KB

Status: checked
Completed: 16 times
Size: 739 MB
terms.php
[Profile] [PM]
Display posts:    
Reply to topic

Current time is: 20-Jan 22:15

All times are UTC ± 0



You cannot post new topics in this forum
You cannot reply to topics in this forum
You cannot edit your posts in this forum
You cannot delete your posts in this forum
You cannot vote in polls in this forum
You cannot attach files in this forum
You can download files in this forum