Большая красная единица / The Big Red One (Сэмюэл Фуллер / Samuel Fuller) [1980, США, драма, военный, VHSRip-AVC] [Fullscreen] MVO (Мост-Видео)

DL-List and Torrent activity
Size:  2.43 GB   |    Registered:  3 years 1 month   |    Completed:  16 times
Seeders:  4  
 
   
 
 

erzsebet.org ®

Longevity:
3 years 1 month
Posts:
47596

[Quote] 

Большая красная единица / The Big Red One / Fullscreen
Страна: США
Жанр: драма, военный
Год выпуска: 1980
Продолжительность: 01:48:44
Перевод: Профессиональный (многоголосый закадровый) Мост-Видео
Субтитры: нет
Оригинальная аудиодорожка: нет
Режиссер: Сэмюэл Фуллер / Samuel Fuller
В ролях: Ли Марвин, Марк Хэмилл, Роберт Кэрредин, Бобби Ди Чикко, Келли Уорд, Стефан Одран, Зигфрид Раух, Серж Маркан, Чарльз Макколей, Ален Дуте, Морис Марсак, Сэмюэл Фуллер...
Описание: Эпопея Сэмюэла Фуллера о Второй Мировой войне, повествующая о сражениях, в которых участвовал 1-й пехотный дивизион США. Четыре молодых необстрелянных бойца под командованием ветерана — сержанта, оказываются лицом к лицу с врагом в зыбучих песках Северной Африки. Прежде чем они станут легендой, им предстоит пройти суровые испытания.
Награды и номинации:
Каннский кинофестиваль, 1980 год
Номинация:
Золотая пальмовая ветвь
Доп. информация:
Оцифровка лицензионной VHS из собственной коллекции.
Fullscreen!
Данный перевод впервые в Рунете!

Сэмпл: http://sendfile.su/1370563
Качество видео: VHSRip-AVC
Формат видео: MP4
Видео: AVC, 720х576, 5:4, 25,000 кадров/сек, 3000 Кбит/сек
Аудио: AAC, 64,0 КГц, 192 Кбит/сек, 2.0 (псевдостерео)

MediaInfo

General
Complete name : K:\torrents\The Big Red One\The Big Red One.mp4
Format : MPEG-4
Format profile : Base Media
Codec ID : isom (isom/iso2/avc1/mp41)
File size : 2.43 GiB
Duration : 1 h 48 min
Overall bit rate : 3 196 kb/s
Writing application : Lavf57.25.100
Video
ID : 1
Format : AVC
Format/Info : Advanced Video Codec
Format profile : [email protected]
Format settings : 1 Ref Frames
Format settings, CABAC : No
Format settings, RefFrames : 1 frame
Format settings, GOP : M=1, N=50
Codec ID : avc1
Codec ID/Info : Advanced Video Coding
Duration : 1 h 48 min
Bit rate : 3 000 kb/s
Width : 720 pixels
Height : 576 pixels
Display aspect ratio : 5:4
Frame rate mode : Constant
Frame rate : 25.000 FPS
Standard : PAL
Color space : YUV
Chroma subsampling : 4:2:0
Bit depth : 8 bits
Scan type : Progressive
Bits/(Pixel*Frame) : 0.289
Stream size : 2.28 GiB (94%)
Audio
ID : 2
Format : AAC
Format/Info : Advanced Audio Codec
Format profile : LTP
Codec ID : mp4a-40-4
Duration : 1 h 48 min
Bit rate mode : Constant
Bit rate : 192 kb/s
Channel(s) : 2 channels
Channel(s)_Original : 3 channels
Channel positions : Front: L C R
Sampling rate : 64.0 kHz
Frame rate : 62.500 FPS (1024 SPF)
Compression mode : Lossy
Stream size : 147 MiB (6%)
Default : Yes
Alternate group : 1

Скриншот c названием фильма

If your ratio falls below 0.3, you will not be able to download Torrents! More about the rating.

[erzsebet.pl].t789.torrent
Torrent: Registered   [ 2017-12-02 17:13 ]

Download .torrent

Download

13 KB

Status: checked
Completed: 16 times
Size: 2.43 GB
terms.php

#1

02-Dec-2017 17:12

[Profile]  [PM] 
Display posts:    

You cannot post new topics in this forum
You cannot reply to topics in this forum
You cannot edit your posts in this forum
You cannot delete your posts in this forum
You cannot vote in polls in this forum
You cannot attach files in this forum
You can download files in this forum
User agreement
For copyright holders
Advertise on this site

Скачайте на халяву через торрент на трекере erzsebet.pl

!ATTENTION!
The site does not give electronic versions of products, and is engaged only in a collecting and cataloguing of the references sent and published at a forum by our readers. If you are the legal owner of any submitted material and do not wish that the reference to it was in our catalogue, contact us and we shall immediately remove her. Files for an exchange on tracker are given by users of a site, and the administration does not bear the responsibility for their maintenance. The request to not fill in the files protected by copyrights, and also files of the illegal maintenance!