Заклятье. Наши дни / The Crucifixion (Ксавье Жанс / Xavier Gens) [2017, Великобритания, Румыния, ужасы, триллер, детектив, HDRip] Dub (iTunes)

DL-List and Torrent activity
Size:  743 MB   |    Registered:  3 years 1 month   |    Completed:  16 times
Seeders:  1  
 
   
 
 

erzsebet.org ®

Longevity:
3 years 1 month
Posts:
47596

[Quote] 

Заклятье. Наши дни / The Crucifixion
Страна: Великобритания, Румыния
Жанр: ужасы, триллер, детектив
Год выпуска: 2017
Продолжительность: 01:29:54-Перевод: Профессиональный (дублированный) | iTunes
Субтитры: нет
Оригинальная аудиодорожка: нет-Режиссер: Ксавье Жанс / Xavier Gens-В ролях: Софи Куксон, Корнелиу Улич, Бриттани Эшворт, Мэтью Заяц, Диана Владу, Раду Банзару, Хавьер Ботет, Иван Гонсалес-Описание: В 2005 году пять священнослужителей обвиняются в убийстве монахини, над которой проводился обряд экзорцизма. Журналистка Николь начинает свое независимое расследование. Но по мере погружения в цепь необъяснимых событий она все больше становится их неотъемлемой частью и все больше склоняется к тому, что служители культа проиграли сражение с демонической сущностью, а экзорцизм стал орудием демона в его страшном ритуале.-Качество видео: HDRip | The.Crucifixion.2017.1080p.BluRay.x264.DTS-HD.MA.5.1-MT
Формат видео: AVI
Видео: 688x288 (2.39:1), 23.976 fps, XviD build 73 ~1017 kbps avg, 0.21 bit/pixel
Аудио: 48 kHz, MPEG Layer 3, 2 ch, ~128.00 kbps avg-Сэмпл-

MediaInfo

Код:Format : AVI
Format/Info : Audio Video Interleave
File size : 743 MiB
Duration : 1 h 29 min
Overall bit rate : 1 155 kb/s
Writing application : VirtualDubMod 1.5.10.2 (build 2542/release)
Writing library : VirtualDubMod build 2542/release
Video
ID : 0
Format : MPEG-4 Visual
Format profile : Advanced [email protected]
Format settings : BVOP1 / Custom Matrix
Format settings, BVOP : 1
Format settings, QPel : No
Format settings, GMC : No warppoints
Format settings, Matrix : Custom
Codec ID : XVID
Codec ID/Hint : XviD
Duration : 1 h 29 min
Bit rate : 1 018 kb/s
Width : 688 pixels
Height : 288 pixels
Display aspect ratio : 2.40:1
Frame rate : 23.976 (24000/1001) FPS
Color space : YUV
Chroma subsampling : 4:2:0
Bit depth : 8 bits
Scan type : Progressive
Compression mode : Lossy
Bits/(Pixel*Frame) : 0.214
Stream size : 654 MiB (88%)
Writing library : XviD 73
Audio
ID : 1
Format : MPEG Audio
Format version : Version 1
Format profile : Layer 3
Format settings : Joint stereo / MS Stereo
Mode : Joint stereo
Mode extension : MS Stereo
Codec ID : 55
Codec ID/Hint : MP3
Duration : 1 h 29 min
Bit rate mode : Constant
Bit rate : 128 kb/s
Channel(s) : 2 channels
Sampling rate : 48.0 kHz
Compression mode : Lossy
Stream size : 82.3 MiB (11%)
Alignment : Aligned on interleaves
Interleave, duration : 42 ms (1.00 video frame)
Interleave, preload duratio : 504 ms
Writing library : LAME3.99r
Encoding settings : -m j -V 4 -q 2 -lowpass 17 -b 128

Скриншоты

If your ratio falls below 0.3, you will not be able to download Torrents! More about the rating.

[erzsebet.pl].t8.torrent
Torrent: Registered   [ 2017-12-02 15:58 ]

Download .torrent

Download

15 KB

Status: checked
Completed: 16 times
Size: 743 MB
terms.php

#1

02-Dec-2017 15:58

[Profile]  [PM] 
Display posts:    

You cannot post new topics in this forum
You cannot reply to topics in this forum
You cannot edit your posts in this forum
You cannot delete your posts in this forum
You cannot vote in polls in this forum
You cannot attach files in this forum
You can download files in this forum
User agreement
For copyright holders
Advertise on this site

Скачайте на халяву через торрент на трекере erzsebet.pl

!ATTENTION!
The site does not give electronic versions of products, and is engaged only in a collecting and cataloguing of the references sent and published at a forum by our readers. If you are the legal owner of any submitted material and do not wish that the reference to it was in our catalogue, contact us and we shall immediately remove her. Files for an exchange on tracker are given by users of a site, and the administration does not bear the responsibility for their maintenance. The request to not fill in the files protected by copyrights, and also files of the illegal maintenance!