Прогнать Ллойда - Ребёнок на прогулке 2 / Необыкновенная посылка / Special Delivery (Марк Жан / Mark Jean) [2000, Канада, США, Детский, семейный, комедия, VHSRip] AVO (Сергей Визгунов)

Reply to topic
DL-List and Torrent activity
Size:  1.37 GB   |    Registered:  3 years 1 month   |    Completed:  16 times

Seeder not seen: Never

 
   
 
 
Author Message

erzsebet.org ®

Longevity: 3 years 1 month

Posts: 47596

Post 02-Dec-2017 17:16

[Quote]

Прогнать Ллойда - Ребёнок на прогулке 2 / Необыкновенная посылка / Special Delivery
Страна: Канада, США
Жанр: Детский, семейный, комедия
Год выпуска: 2000
Продолжительность: 01:29:27
Перевод: Авторский (одноголосый закадровый) Сергей Визгунов
Субтитры: нет
Режиссер: Марк Жан / Mark Jean
В ролях: Энди Дик
Дэвид Льюис
Меган Лейтч
Джоделль Ферланд
Ральф Дж. Олдермен
Нельс Леннарсон
Донна Уайт
Кевин МакНалти
Дженнифер Клемент
Грег Роджерс
Описание: Рождественская семейная комедия.
Молодая семья решила усыновить ребенка, чтобы их маленькой дочке не было одиноко. Но при его доставке в аэропорту произошла путанница, и рассеянный посыльный в самолете обнаружил, что везет не младенца, а куклу. Парню приходится выкручиваться из этой запутанной ситуации, в результате чего он сам оказывается новым членом семьи в качестве большого приятеля маленькой девочки.
Доп. информация: Оцифровка VHS из коллекции RoxMarty для рутрекера.
Релиз
Сэмпл: https://yadi.sk/i/C8EBUOr03PLpRN
Качество видео: VHSRip
Формат видео: AVI
Видео: 704x528 (1.33:1), 25 fps, XviD build 73 ~1984 kbps avg, 0.21 bit/pixel
Аудио: 48 kHz, AC3 Dolby Digital, 2/0 (L,R) ch, ~192 kbps

MediaInfo

Необыкновенная посылка - Special Delivery [by RoxMarty].avi
Format : AVI
Format/Info : Audio Video Interleave
File size : 1.37 GiB
Duration : 1 h 29 min
Overall bit rate : 2 186 kb/s
Movie name : Необыкновенная посылка - Special Delivery [by RoxMarty]
Director : by RoxMarty
Writing application : VirtualDubMod 1.5.10.3 | www.virtualdub-fr.org || (build 2550/release)
Copyright : Edich2
Comment : erzsebet.org
Video
ID : 0
Format : MPEG-4 Visual
Format profile : Advanced [email protected]
Format settings, BVOP : 2
Format settings, QPel : No
Format settings, GMC : No warppoints
Format settings, Matrix : Custom
Codec ID : XVID
Codec ID/Hint : XviD
Duration : 1 h 29 min
Bit rate : 1 985 kb/s
Width : 704 pixels
Height : 528 pixels
Display aspect ratio : 4:3
Frame rate : 25.000 FPS
Color space : YUV
Chroma subsampling : 4:2:0
Bit depth : 8 bits
Scan type : Progressive
Compression mode : Lossy
Bits/(Pixel*Frame) : 0.214
Stream size : 1.24 GiB (91%)
Writing library : XviD 73
Audio
ID : 1
Format : AC-3
Format/Info : Audio Coding 3
Format settings, Endianness : Big
Codec ID : 2000
Duration : 1 h 29 min
Bit rate mode : Constant
Bit rate : 192 kb/s
Channel(s) : 2 channels
Channel positions : Front: L R
Sampling rate : 48.0 kHz
Frame rate : 31.250 FPS (1536 spf)
Bit depth : 16 bits
Compression mode : Lossy
Stream size : 123 MiB (9%)
Alignment : Split accross interleaves
Interleave, duration : 40 ms (1.00 video frame)
Interleave, preload duratio : 500 ms
Service kind : Complete Main

Скриншоты


If your ratio falls below 0.3, you will not be able to download Torrents! More about the rating.

[erzsebet.pl].t806.torrent
Torrent: Registered [ 2017-12-02 17:17 ] · DEE049B3748C6CF7BB25C5F759D510ED5E9C90B9

Download .torrent

Download

14 KB

Status: checked
Completed: 16 times
Size: 1.37 GB
terms.php
[Profile] [PM]
Display posts:    
Reply to topic

Current time is: 23-Jan 14:17

All times are UTC ± 0



You cannot post new topics in this forum
You cannot reply to topics in this forum
You cannot edit your posts in this forum
You cannot delete your posts in this forum
You cannot vote in polls in this forum
You cannot attach files in this forum
You can download files in this forum