Легенда Сонной Лощины / The Legend of Sleepy Hollow (Пьер Ганг / Pierre Gang) [1999, США, Канада, фэнтези, драма, приключения, VHSRip] DVO ("студия Ракурс. Екатеринбург Арт")

Reply to topic
DL-List and Torrent activity
Size:  3 GB   |    Registered:  3 years 1 month   |    Completed:  16 times

Seeder not seen: Never

 
   
 
 
Author Message

erzsebet.org ®

Longevity: 3 years 1 month

Posts: 47596

Post 02-Dec-2017 17:16

[Quote]

Легенда Сонной Лощины / The Legend of Sleepy Hollow
«Когда наступает ночь, никто не слышит криков...»
Страна: США, Канада
Жанр: фэнтези, драма, приключения
Год выпуска: 1999
Продолжительность: 01:31:08
Перевод: Профессиональный (двухголосый закадровый) "Екатеринбург Арт"
Субтитры: нет
Режиссер: Пьер Ганг / Pierre Gang
В ролях: Брент Карвер - в роли Айкебода Крэйна, Рашель Лефевр, Власта Врана, Кэтлин Фи, Пол Лемелин, Мишель Перрон, Доун Форд, Лиза Бронвин Мур, Ричард Джутрас
Описание: Новая экранизация классической повести Вашингтона Ирвинга. В Сонной Лощине, тихой деревушке на берегу Гудзона, появился новый школьный учитель, Айкебод Крэйн. И именно ему было суждено стать главным героем невероятной истории, связанной с легендарным Всадником Без Головы, наводящим по ночам ужас на запоздалых путников.
Местные жители верят, что этот призрак солдата времен Войны за Независимость не успокоится до тех пор, пока не найдет свою оторванную голову. Но Крэйн заявляет, что не верит в эти сказки. Ему нравится Катрина Ван Тассль, дочь самого богатого фермера в округе, и она отвечает ему взаимностью, желая подразнить своего жениха, кузнеца Брома Боунса. Но внезапно в этом любовном треугольнике появляется четвертый участник — ужасный Всадник Без Головы.
Доп. информация: Оцифровка лицензионной VHS (личный архив) и получение VHSRip alenavova
Эксклюзив для erzsebet.org. При размещении данного релиза на других сайтах ссылка на автора alenavova обязательна.
Релиз
Сэмпл: https://yadi.sk/i/W1BEbAWu3PCAYs
Качество видео: VHSRip
Формат видео: MPG
Видео: MPEG2 Video 720х[email protected] (4:3) 25fps bit rate 4 708 kb/s
Аудио: MPEG Audio 48000Hz stereo 256kbps

MediaInfo

Максимальный риск - Maximum Risk [by alenavova].mpg
Format : MPEG-PS
File size : 3.18 GiB
Duration : 1 h 36 min
Overall bit rate mode : Variable
Overall bit rate : 4 708 kb/s
Video
ID : 224 (0xE0)
Format : MPEG Video
Format version : Version 2
Format profile : [email protected]
Format settings, BVOP : Yes
Format settings, Matrix : Custom
Format settings, GOP : M=3, N=12
Format settings, picture st : Frame
Duration : 1 h 36 min
Bit rate mode : Variable
Bit rate : 4 380 kb/s
Width : 720 pixels
Height : 576 pixels
Display aspect ratio : 4:3
Frame rate : 25.000 FPS
Standard : PAL
Color space : YUV
Chroma subsampling : 4:2:0
Bit depth : 8 bits
Scan type : Interlaced
Scan order : Top Field First
Compression mode : Lossy
Bits/(Pixel*Frame) : 0.422
Time code of first frame : 00:00:00:00
Time code source : Group of pictures header
GOP, Open/Closed : Open
GOP, Open/Closed of first f : Closed
Stream size : 2.95 GiB (93%)
Audio
ID : 192 (0xC0)
Format : MPEG Audio
Format version : Version 1
Format profile : Layer 2
Duration : 1 h 36 min
Bit rate mode : Constant
Bit rate : 256 kb/s
Channel(s) : 2 channels
Sampling rate : 48.0 kHz
Compression mode : Lossy
Stream size : 177 MiB (5%)

Скриншоты


If your ratio falls below 0.3, you will not be able to download Torrents! More about the rating.

[erzsebet.pl].t848.torrent
Torrent: Registered [ 2017-12-02 17:17 ] · 1B704797F46DA49C154C15CB6E9B40548672A027

Download .torrent

Download

16 KB

Status: checked
Completed: 16 times
Size: 3 GB
terms.php
[Profile] [PM]
Display posts:    
Reply to topic

Current time is: 20-Jan 07:12

All times are UTC ± 0



You cannot post new topics in this forum
You cannot reply to topics in this forum
You cannot edit your posts in this forum
You cannot delete your posts in this forum
You cannot vote in polls in this forum
You cannot attach files in this forum
You can download files in this forum