Максимальный риск / Maximum Risk (Ринго Лам / Ringo Lam) [1996, США, боевик, триллер, криминал, VHSRip] [Full screen] MVO (Видеосервис)

Reply to topic
DL-List and Torrent activity
Size:  3.18 GB   |    Registered:  3 years 1 month   |    Completed:  16 times

Seeder not seen: Never

 
   
 
 
Author Message

erzsebet.org ®

Longevity: 3 years 1 month

Posts: 47596

Post 02-Dec-2017 17:16

[Quote]

Максимальный риск / Maximum Risk
[Full screen]
«The nearer he gets to the truth, the closer he gets to the edge»
Он перешёл дорогу русской мафии.
Он встал на опасный путь, но ему нужна правда.
И он готов пойти на риск - Максимальный риск.

Страна: США
Жанр: боевик, триллер, криминал
Год выпуска: 1996
Продолжительность: 01:36:50
Перевод: Профессиональный (многоголосый закадровый) Видеосервис
Субтитры: нет
Режиссер: Ринго Лам / Ringo Lam
В ролях: Жан-Клод Ван Дамм (Alain Moreau / Mikhail Suverov), Наташа Хенстридж (Alex), Жан-Юг Англад (Sebastien), Зэк Гренье (Ivan Dzasokhov), Пол Бен-Виктор (Agent Pellman), Фрэнк Сенгер (Agent Loomis), Стефанос Мильцакакис (Red Face), Франк Ван Кекен (Davis Hartley), Дэвид Хемблен (Dmitri Kirov), Стефан Ордан (Chantal Moreau)
Описание: Французский полицейский Ален Моро узнает о том, что один из погибших в перестрелке бандитов по имени Михаил очень похож на него. И это мягко сказано: на самом деле у них просто одно лицо. Мать Алена неожиданно признается в том, что Михаил — это его брат-близнец, оставленный в роддоме по настоянию семьи. Полицейский решает узнать о погибшем брате как можно больше. Он отправляется в Нью-Йорк. И чем ближе он к цели, тем меньше шансов выжить.
Доп. информация: Оцифровка лицензионной VHS (личный архив) и получение VHSRip alenavova
Эксклюзив для erzsebet.org. При размещении данного релиза на других сайтах ссылка на автора alenavova обязательна.
Релиз
Сэмпл: https://yadi.sk/i/C5YSarR13PC7ek
Качество видео: VHSRip [исходник]
Формат видео: MPG
Видео: MPEG2 Video 720x576 (4:3) 25fps 4380kbps
Аудио: MPEG Audio 48000Hz stereo 256kbps

MediaInfo

Максимальный риск - Maximum Risk [by alenavova].mpg
Format : MPEG-PS
File size : 3.18 GiB
Duration : 1 h 36 min
Overall bit rate mode : Variable
Overall bit rate : 4 708 kb/s
Video
ID : 224 (0xE0)
Format : MPEG Video
Format version : Version 2
Format profile : [email protected]
Format settings, BVOP : Yes
Format settings, Matrix : Custom
Format settings, GOP : M=3, N=12
Format settings, picture st : Frame
Duration : 1 h 36 min
Bit rate mode : Variable
Bit rate : 4 380 kb/s
Width : 720 pixels
Height : 576 pixels
Display aspect ratio : 4:3
Frame rate : 25.000 FPS
Standard : PAL
Color space : YUV
Chroma subsampling : 4:2:0
Bit depth : 8 bits
Scan type : Interlaced
Scan order : Top Field First
Compression mode : Lossy
Bits/(Pixel*Frame) : 0.422
Time code of first frame : 00:00:00:00
Time code source : Group of pictures header
GOP, Open/Closed : Open
GOP, Open/Closed of first f : Closed
Stream size : 2.95 GiB (93%)
Audio
ID : 192 (0xC0)
Format : MPEG Audio
Format version : Version 1
Format profile : Layer 2
Duration : 1 h 36 min
Bit rate mode : Constant
Bit rate : 256 kb/s
Channel(s) : 2 channels
Sampling rate : 48.0 kHz
Compression mode : Lossy
Stream size : 177 MiB (5%)

Скриншоты

If your ratio falls below 0.3, you will not be able to download Torrents! More about the rating.

[erzsebet.pl].t851.torrent
Torrent: Registered [ 2017-12-02 17:17 ] · 6DBC8DAE73DB748DE070AA9BF91E9A96E0BD6CDD

Download .torrent

Download

16 KB

Status: checked
Completed: 16 times
Size: 3.18 GB
terms.php
[Profile] [PM]
Display posts:    
Reply to topic

Current time is: 23-Jan 14:14

All times are UTC ± 0



You cannot post new topics in this forum
You cannot reply to topics in this forum
You cannot edit your posts in this forum
You cannot delete your posts in this forum
You cannot vote in polls in this forum
You cannot attach files in this forum
You can download files in this forum