Мата Хари, агент Х21 / Мата Хари, агент Н21 / Mata Hari, agent H21 / Mata-Hari agente segreto H21 (Жан-Луи Ришар / Jean-Louis Richard) [1964, Франция, Италия, драма, военный, история, приключения, HDTVRip] Sub Rus + Original Fre

Reply to topic
DL-List and Torrent activity
Size:  1.37 GB   |    Registered:  3 years 1 month   |    Completed:  16 times

Seeder not seen: 3 years 1 month

 
   
 
 
Author Message

erzsebet.org ®

Longevity: 3 years 1 month

Posts: 47596

Post 02-Dec-2017 16:06

[Quote]

Мата Хари, агент Х21 / Мата Хари, агент Н21-Mata Hari, agent H21 / Mata-Hari agente segreto H21- Страна: Франция, Италия
Жанр: драма, военный, история, приключения
Год выпуска: 1964
Продолжительность: 01:34:38
Перевод: Субтитры (Антон Каптелов)
Субтитры: русские
Оригинальная аудиодорожка: французский
Режиссер: Жан-Луи Ришар / Jean-Louis Richard
Сценарист: Франсуа Трюффо / François Truffaut
Художник по костюмам: Пьер Карден / Pierre Cardin
В ролях: Жанна Моро, Жан-Луи Трентиньян, Клод Риш, Анри Гарсен, Жорж Рикие, Франк Виллар, Альбер Реми, Хелла Петри, Николь Десайи, Карла Марлье, Марсель Бербер, Жорж Жере, Шарль Деннер, Мари Дюбуа, Марсель Гассук, Жан-Пьер Лео, Пьер Торнад
Описание: Фильм о приключениях во время Первой Мировой войны легендарной исполнительницы экзотических танцев, шпионки и куртизанки Мата Хари.
Сэмпл: http://multi-up.com/1176036
Качество видео: HDTVRip
Формат видео: AVI
Видео: 720x432 (1.67:1), 25 fps, XviD build 73 ~1874 kbps avg, 0.24 bit/pixel
Аудио: 48 kHz, AC3 Dolby Digital, 2/0 (L,R) ch, ~192 kbps
Формат субтитров: softsub (SRT)

MediaInfo

Complete name : E:\Mata Hari, Agent H21_1964\Mata Hari, agent.1964.HDTVRip.Rus.sub.Lem.avi
Format : AVI
Format/Info : Audio Video Interleave
File size : 1.37 GiB
Duration : 1 h 34 min
Overall bit rate : 2 076 kb/s
Writing application : VirtualDubMod 1.5.10.3 | www.virtualdub-fr.org || (build 2550/release)
Writing library : VirtualDubMod build 2550/release
Video
ID : 0
Format : MPEG-4 Visual
Format profile : Advanced [email protected]
Format settings : BVOP1 / Custom Matrix
Format settings, BVOP : 1
Format settings, QPel : No
Format settings, GMC : No warppoints
Format settings, Matrix : Custom
Codec ID : XVID
Codec ID/Hint : XviD
Duration : 1 h 34 min
Bit rate : 1 874 kb/s
Width : 720 pixels
Height : 432 pixels
Display aspect ratio : 5:3
Frame rate : 25.000 FPS
Color space : YUV
Chroma subsampling : 4:2:0
Bit depth : 8 bits
Scan type : Progressive
Compression mode : Lossy
Bits/(Pixel*Frame) : 0.241
Stream size : 1.24 GiB (90%)
Writing library : XviD 73
Audio
ID : 1
Format : AC-3
Format/Info : Audio Coding 3
Format settings, Endianness : Big
Codec ID : 2000
Duration : 1 h 34 min
Bit rate mode : Constant
Bit rate : 192 kb/s
Channel(s) : 2 channels
Channel positions : Front: L R
Sampling rate : 48.0 kHz
Frame rate : 31.250 FPS (1536 SPF)
Bit depth : 16 bits
Compression mode : Lossy
Stream size : 130 MiB (9%)
Alignment : Split accross interleaves
Interleave, duration : 40 ms (1.00 video frame)
Interleave, preload duratio : 500 ms
Service kind : Complete Main

Скриншоты


Пример субтитров

1
00:00:03,756 --> 00:00:06,272
Немного цветов на удачу?
2
00:00:08,261 --> 00:00:11,847
- Ты опять опоздала!
- Никак не могла застегнуть платье.
3
00:00:12,676 --> 00:00:15,005
Немного цветов, мадмуазель?
4
00:00:18,404 --> 00:00:21,590
Возьмите программку!
Не забудьте программку!
5
00:00:23,399 --> 00:00:25,211
Программка!
6
00:00:40,800 --> 00:00:43,114
Они прорвали линию фронта на Сомме!
7
00:00:43,359 --> 00:00:46,237
- Это - сакральный танец.
- Вряд ли!
8
00:00:46,480 --> 00:00:49,752
Она научилась ему в храме.
Ее мать была с Явы!
9
00:00:49,949 --> 00:00:52,691
Ее происхождение ничуть не более яванское,
чем у тебя.
10
00:00:57,960 --> 00:01:04,360
Жанна МОРО в фильме
"МАТА ХАРИ"
11
00:01:05,760 --> 00:01:08,672
Я видел ее в Монте-Карло,
и она была превосходна!
12
00:01:09,240 --> 00:01:13,358
- Они не должны сюда таких пропускать!
- Этот солдат совершенно пьян!
13
00:01:18,880 --> 00:01:23,780
Жан-Луи ТРЕНТИНЬЯН
Клод РИШ
14
00:01:24,680 --> 00:01:30,380
Франк ВИЛЛАР, Альберт РЕМИ,
Жорж РИКУЕ
15
00:01:32,880 --> 00:01:36,965
Да, это она дала мне билеты.
Я знакома с ней лично!
16
00:01:40,160 --> 00:01:47,160
оператор - Мишель КЕЛБЕР
музыка - Жорж ДЕБЕРУ
монтаж - Рено ТЕЛТЬЕ
17
00:01:47,960 --> 00:01:55,000
сценарий - Ж. Л. РИШАР и Ф. ТРЮФФО
диалоги - Франсуа ТРЮФФО
постановка - Жан-Луи РИШАР
18
00:03:29,160 --> 00:03:30,718
Тише вы там!
19
00:03:34,970 --> 00:03:36,300
Заткнитесь!
20
00:03:36,572 --> 00:03:39,557
Фрицы должны взять Дуамон!
Огромная благодарность dimmm2vза организацию перевода, Антону Каптелову за перевод,
Lem за рип
--12.11.2017 заменен рип, обновлены тех.данные

If your ratio falls below 0.3, you will not be able to download Torrents! More about the rating.

[erzsebet.pl].t90.torrent
Torrent: Registered [ 2017-12-02 16:06 ] · EB661599591A7F7DB8CBAA3410F982136008A254

Download .torrent

Download

14 KB

Status: checked
Completed: 16 times
Size: 1.37 GB
terms.php
[Profile] [PM]
Display posts:    
Reply to topic

Current time is: 17-Jan 19:21

All times are UTC ± 0



You cannot post new topics in this forum
You cannot reply to topics in this forum
You cannot edit your posts in this forum
You cannot delete your posts in this forum
You cannot vote in polls in this forum
You cannot attach files in this forum
You can download files in this forum