Нападение на 13-й участок / Assault on Precinct 13 (Жан-Франсуа Рише / Jean-Francois Richet) [2005, США, Франция, боевик, триллер, драма, криминал, HDTVRip] [Open Matte] MVO (Первый канал)

Reply to topic
DL-List and Torrent activity
Size:  1.46 GB   |    Registered:  3 years 1 month   |    Completed:  16 times

Seeder not seen: Never

 
   
 
 
Author Message

erzsebet.org ®

Longevity: 3 years 1 month

Posts: 47596

Post 02-Dec-2017 17:26

[Quote]

Нападение на 13-й участок / Assault on Precinct 13
Страна: США, Франция
Студия: Biscayne Pictures, Liaisons Films, Rogue Pictures, Why Not Productions
Жанр: Боевик, триллер, драма, криминал
Год выпуска: 2005
Продолжительность: 01:39:10
Перевод: Профессиональный (многоголосый закадровый) Первый канал
Субтитры: нет
Оригинальная аудиодорожка: нет
Режиссер: Жан-Франсуа Рише / Jean-Francois Richet
В ролях: Итан Хоук, Лоренс Фишбёрн, Гэбриел Бирн, Мария Белло, Дреа де Маттео, Джон Легуизамо, Брайан Деннехи, Джа Рул, Карри Грэм, Аиша Хайндс, Мэтт Крэйвен, Фульвио Чечере, Питер Брайант, Ким Коутс, Хью Диллон, Тиг Фонг, Ясмин Гельо, Джессика Греко, Дориан Хэрвуд, Филип Маршалл, Арнольд Пиннок
Описание: В канун Нового года спецавтобус, перевозящий заключенных, делает вынужденную остановку в 13-м полицейском участке. Среди преступников крупный криминальный авторитет. Его подельники, чтобы освободить босса, решают взять штурмом 13-й участок.
Дополнительная информация:
Автор релиза -
Источник для рипа - HDTV 1080i - http://erzsebet.org/forum/viewtopic.php?t=5463101
Рекламы нет!


Сэмпл: https://yadi.sk/i/z6CEOtSS3NYq3i
Качество видео: HDTVRip
Формат видео: AVI
Видео: XviD, 720x400 (16:9), 25.000 fps, 1911 kbps, 0.265 bit/pixel
Аудио: Русский АС3, 48000 Гц, 2ch, 192 kbps

MediaInfo

Общее
Полное имя : D:\Assault.on.Precinct.13.2005.HDTVRip-ylnian.avi
Формат : AVI
Формат/Информация : Audio Video Interleave
Размер файла : 1,46 Гбайт
Продолжительность : 1 ч. 39 м.
Общий поток : 2112 Кбит/сек
Название фильма : Assault.on.Precinct.13.2005.HDTVRip-ylnian
Программа кодирования : VirtualDubMod 1.5.10.2 (build 2540/release)
Библиотека кодирования : VirtualDubMod build 2540/release
Видео
Идентификатор : 0
Формат : MPEG-4 Visual
Профиль формата : Advanced [email protected]
Параметр BVOP формата : 1
Параметр QPel формата : Нет
Параметр GMC формата : Без точки перехода
Параметр матрицы формата : Default (MPEG)
Идентификатор кодека : XVID
Идентификатор кодека/Подсказка : XviD
Продолжительность : 1 ч. 39 м.
Битрейт : 1911 Кбит/сек
Ширина : 720 пикселей
Высота : 400 пикселей
Соотношение сторон : 16:9
Частота кадров : 25,000 кадров/сек
Цветовое пространство : YUV
Субдискретизация насыщенности : 4:2:0
Битовая глубина : 8 бит
Тип развёртки : Прогрессивная
Метод сжатия : С потерями
Бит/(Пиксели*Кадры) : 0.265
Размер потока : 1,32 Гбайт (90%)
Библиотека кодирования : XviD 67
Аудио
Идентификатор : 1
Формат : AC-3
Формат/Информация : Audio Coding 3
Параметр Endianness формата : Big
Идентификатор кодека : 2000
Продолжительность : 1 ч. 39 м.
Вид битрейта : Постоянный
Битрейт : 192 Кбит/сек
Каналы : 2 канала
Расположение каналов : Front: L R
Частота : 48,0 КГц
Частота кадров : 31,250 кадров/сек (1536 spf)
Битовая глубина : 16 бит
Метод сжатия : С потерями
Размер потока : 136 Мбайт (9%)
Выравнивание : Разделение по промежуткам
Продолжительность промежутка : 40 мс. (1,00 видеокадр)
Время предзагрузки промежутка : 500 мс.
Заголовок : MVO - 1 kanal
ServiceKind/String : Complete Main

Сравнение

По Первому каналу фильм в Open Matte - кадр у HDTV в сравнении с BD значительно больше сверху и снизу, но немного подрезан по бокам:
Сравнение скриншотов с BDRip - http://screenshotcomparison.com/comparison/119827

If your ratio falls below 0.3, you will not be able to download Torrents! More about the rating.

[erzsebet.pl].t910.torrent
Torrent: Registered [ 2017-12-02 17:26 ] · 9BC8C54788A2DB75E288245533796D6BC970EA76

Download .torrent

Download

15 KB

Status: checked
Completed: 16 times
Size: 1.46 GB
terms.php
[Profile] [PM]
Display posts:    
Reply to topic

Current time is: 26-Jan 08:23

All times are UTC ± 0



You cannot post new topics in this forum
You cannot reply to topics in this forum
You cannot edit your posts in this forum
You cannot delete your posts in this forum
You cannot vote in polls in this forum
You cannot attach files in this forum
You can download files in this forum