Стрекоза / Dragonfly (Том Шэдьяк / Tom Shadyac) [2002, США, Германия, Мистический триллер, DVDRip] AVO (Сергей Визгунов)

Reply to topic
DL-List and Torrent activity
Size:  1.37 GB   |    Registered:  3 years 1 month   |    Completed:  16 times

Seeder not seen: Never

 
   
 
 
Author Message

erzsebet.org ®

Longevity: 3 years 1 month

Posts: 47596

Post 02-Dec-2017 17:25

[Quote]

Стрекоза / Dragonfly
Страна: США, Германия
Жанр: Мистический триллер
Год выпуска: 2002
Продолжительность: 01:40:03
Перевод: Авторский (одноголосый закадровый) Сергей Визгунов
Субтитры: нет
Режиссер: Том Шэдьяк / Tom Shadyac
В ролях: Кевин Костнер, Сюзанна Томпсон, Рон Рифкин, Кэти Бейтс, Роберт Бэйли мл., Джейкоб Смит, Джей Томас, Лиза Бейнс, Мэтт Крэйвен
Описание: После трагической гибели в горах Венесуэлы доктора Эмили Дэрроу в жизни её мужа Джо, работавшего с ней в одной больнице, начинают происходить необъяснимые события. Больные дети, которых лечила Эмили, утверждают, что она является им в видениях, пытаясь сообщить что-то важное. Загадочные знаки и пугающие послания неотступно преследуют Джо, и вскоре он убеждает себя, что сумеет разгадать их тайный смысл, только если отправится туда, где его жена рассталась с жизнью…
Доп. информация: Дорожка с С. Визгуновым синхронизирована и наложена ale_x2008 при помощи Adobe Audition, Sony Vegas и VirtualDubMod.
За предоставленную дорожку благодарим - Raptorio Rio
Релиз
Сэмпл: https://yadi.sk/i/PNwzK1lE3NU2Ns
Качество видео: DVDRip
Формат видео: AVI
Видео: XviD build 73, 704x400 (1.76:1), 25 fps, 1755 kbps avg, 0.25 bit/pixel
Аудио: AC3 Dolby Digital, 48000Hz 2/0 (L,R) ch (mono), 192.00 kbps avg

MediaInfo

Стрекоза - Dragonfly (by ale_2008).avi
Format : AVI
Format/Info : Audio Video Interleave
File size : 1.37 GiB
Duration : 1 h 40 min
Overall bit rate : 1 958 kb/s
Movie name : Стрекоза - Dragonfly (by ale_2008)
Director : by ale_x2008
Writing application : VirtualDubMod 1.5.10.2 (build 2540/release)
Copyright : Edich2
Comment : erzsebet.org
Video
ID : 0
Format : MPEG-4 Visual
Format profile : Advanced [email protected]
Format settings, BVOP : 2
Format settings, QPel : No
Format settings, GMC : No warppoints
Format settings, Matrix : Custom
Codec ID : XVID
Codec ID/Hint : XviD
Duration : 1 h 40 min
Bit rate : 1 756 kb/s
Width : 704 pixels
Height : 400 pixels
Display aspect ratio : 16:9
Frame rate : 25.000 FPS
Color space : YUV
Chroma subsampling : 4:2:0
Bit depth : 8 bits
Scan type : Progressive
Compression mode : Lossy
Bits/(Pixel*Frame) : 0.249
Stream size : 1.23 GiB (90%)
Writing library : XviD 73
Audio
ID : 1
Format : AC-3
Format/Info : Audio Coding 3
Format settings, Endianness : Big
Codec ID : 2000
Duration : 1 h 40 min
Bit rate mode : Constant
Bit rate : 192 kb/s
Channel(s) : 2 channels
Channel positions : Front: L R
Sampling rate : 48.0 kHz
Frame rate : 31.250 FPS (1536 spf)
Bit depth : 16 bits
Compression mode : Lossy
Stream size : 137 MiB (10%)
Alignment : Split accross interleaves
Interleave, duration : 40 ms (1.00 video frame)
Interleave, preload duratio : 500 ms
Service kind : Complete Main

Скриншоты


If your ratio falls below 0.3, you will not be able to download Torrents! More about the rating.

[erzsebet.pl].t912.torrent
Torrent: Registered [ 2017-12-02 17:26 ] · 091A7844D443556F268BD4E30E0A42BAEAAD95C1

Download .torrent

Download

14 KB

Status: checked
Completed: 16 times
Size: 1.37 GB
terms.php
[Profile] [PM]
Display posts:    
Reply to topic

Current time is: 24-Jan 16:25

All times are UTC ± 0



You cannot post new topics in this forum
You cannot reply to topics in this forum
You cannot edit your posts in this forum
You cannot delete your posts in this forum
You cannot vote in polls in this forum
You cannot attach files in this forum
You can download files in this forum