Кошки против собак / Кошки и собаки / Cats & Dogs (Лоуренс Гутерман / Lawrence Guterman) [2001, США, Австралия, фэнтези, боевик, комедия, семейный, BDRip] MVO (СТС)

Reply to topic
DL-List and Torrent activity
Size:  1.41 GB   |    Registered:  3 years 1 month   |    Completed:  16 times

Seeder not seen: 3 years 1 month

 
   
 
 
Author Message

erzsebet.org ®

Longevity: 3 years 1 month

Posts: 47596

Post 02-Dec-2017 17:25

[Quote]

Кошки против собак / Кошки и собаки / Cats & Dogs
Год выпуска: 2001
Страна: США, Австралия
Жанр: фэнтези, боевик, комедия, семейный
Продолжительность: 01:27:15
Перевод: Профессиональный (многоголосый закадровый) - СТС
Субтитры: нет
Режиссер: Лоуренс Гутерман / Lawrence Guterman
В ролях: Джефф Голдблюм / Professor Brody, Элизабет Перкинс / Mrs. Brody, Мириам Маргулис / Sophie the Castle Maid, Александр Поллок / Scotty Brody-Мировая премьера: 23 июня 2001-Описание: Они — хитры. Они — вороваты. Они начинают сверхсекретную войну на высшем технологическом уровне за власть над миром, и все — под нашим носом. Они кошки и собаки! Посмотрите что получится, когда эксцентричный профессор совершит открытие, способное нарушить древний баланс власти четвероногих. Маленький и неопытный щенок по имени Лу начинает маловыполнимую миссию: пытается спасти человечество от КОТастрофы.-Огромная благодарность:
kingsize87 - видеоряд.
Blind E.T. - личная запись фильма с телеканала СТС.
JUSTKANT - синхронизация перевода.-Данный перевод на трекере появляется впервые..-На русский язык фильм озвучен по заказу СТС.
Текст читают Виктор Петров, Дмитрий Филимонов, Наталья Гурзо и Галина Исхакова.-
Рейтинг

MPAA: PG - Рекомендуется присутствие родителей.-Качество видео: BDRip
Формат видео: AVI -> //СЭМПЛ//
Видео: XviD, 720x400 (16:9), 23.976 fps, 2109 kbps
Аудио:
1 - 48 khz, AC3 Dolby Digital, 2/0 (L,R) ch, ~192 kbps [СТС] TVRip

Отдельно перевод Дольского

https://cloud.mail.ru/public/JZCW/hgeFJk7q6
За перевод огромная благодарность Glowamy.
Дорожка отличается от той, что уже есть на трекере.

MediaInfo

General
Complete name : D:\Кошки против собак (СТС).avi
Format : AVI
Format/Info : Audio Video Interleave
File size : 1.41 GiB
Duration : 1 h 27 min
Overall bit rate : 2 310 kb/s
Movie name : Кошки против собак / Кошки и собаки / Cats & Dogs (СТС)
Director : JUSTKANT
Writing application : VirtualDubMod 1.5.10.3 (build 2550/release)
Copyright : Качество звука: TVRip (Blind E.T.)
Video
ID : 0
Format : MPEG-4 Visual
Format profile : Advanced [email protected]
Format settings, BVOP : 1
Format settings, QPel : No
Format settings, GMC : No warppoints
Format settings, Matrix : Custom
Codec ID : XVID
Codec ID/Hint : XviD
Duration : 1 h 27 min
Bit rate : 2 109 kb/s
Width : 720 pixels
Height : 400 pixels
Display aspect ratio : 16:9
Frame rate : 23.976 (24000/1001) FPS
Color space : YUV
Chroma subsampling : 4:2:0
Bit depth : 8 bits
Scan type : Progressive
Compression mode : Lossy
Bits/(Pixel*Frame) : 0.305
Stream size : 1.29 GiB (91%)
Writing library : XviD 1.2.1 (UTC 2008-12-04)
Audio
ID : 1
Format : AC-3
Format/Info : Audio Coding 3
Format settings, Endianness : Big
Codec ID : 2000
Duration : 1 h 27 min
Bit rate mode : Constant
Bit rate : 192 kb/s
Channel(s) : 2 channels
Channel positions : Front: L R
Sampling rate : 48.0 kHz
Frame rate : 31.250 FPS (1536 SPF)
Bit depth : 16 bits
Compression mode : Lossy
Stream size : 120 MiB (8%)
Alignment : Split accross interleaves
Interleave, duration : 42 ms (1.00 video frame)
Interleave, preload duratio : 500 ms
Title : СТС: Виктор Петров, Дмитрий Филимонов, Наталья Гурзо и Галина Исхакова
Service kind : Complete Main

Скриншот c названием фильма

Скриншоты

If your ratio falls below 0.3, you will not be able to download Torrents! More about the rating.

[erzsebet.pl].t914.torrent
Torrent: Registered [ 2017-12-02 17:26 ] · 46F691D8A6712235CD8D28633B6D968B10557135

Download .torrent

Download

15 KB

Status: checked
Completed: 16 times
Size: 1.41 GB
terms.php
[Profile] [PM]
Display posts:    
Reply to topic

Current time is: 24-Jan 15:25

All times are UTC ± 0



You cannot post new topics in this forum
You cannot reply to topics in this forum
You cannot edit your posts in this forum
You cannot delete your posts in this forum
You cannot vote in polls in this forum
You cannot attach files in this forum
You can download files in this forum