Воровка / Кража / Lift (Кари Стритер / Khari Streeter, Димэйн Дэвис / DeMane Davis) [2001, США, драма, криминал, DVDRip] VO + Original Eng

Reply to topic
DL-List and Torrent activity
Size:  657 MB   |    Registered:  3 years 1 month   |    Completed:  16 times

Seeder not seen: Never

 
   
 
 
Author Message

erzsebet.org ®

Longevity: 3 years 1 month

Posts: 47596

Post 02-Dec-2017 17:25

[Quote]

Воровка / Кража / Lift
Страна: США
Жанр: драма, криминал
Год выпуска: 2001
Продолжительность: 01:26:15
Перевод: Одноголосый закадровый
Субтитры: нет
Оригинальная аудиодорожка: английский
Режиссер: Кари Стритер / Khari Streeter, Димэйн Дэвис / DeMane Davis
В ролях: Керри Вашингтон
Лонетт МакКи
Юджин Бирд
Барбара Монтгомери
Саманта Браун
Стикки Фингаз
Тодд Уильямс
Жак Паркер
Нахим Аллах
Описание: Нейси работает в шикарном универмаге, но эта работа лишь прикрытие для её настоящих дел: она выполняет заказы по краже любых вещей из любых магазинов. Все друзья любят девушку за дорогие подарки, и даже её мать, расположения которой Нейси ищет с детства, благосклонно относится к этому. Её парень курит травку, мечтая стать рэп-продюсером, и лицемерно посматривает сверху вниз на её «магазинные проделки». Но однажды, когда Нейси приходится объединить силы с главарём преступной банды, чтобы добыть особенно дорогой подарок для её матери, всё летит кувырком.
Доп. информация: Фильм из коллекции SUPERDVD01.
Релиз
Сэмпл: https://yadi.sk/i/9vxGjosgqj2Js
Качество видео: DVDRip
Формат видео: AVI
Видео: 512x384 (1.33:1), 23.976 fps, DivX Codec 4.x Bit rate 802 Kbps Bits/(Pixel*Frame) 0.170
Аудио: 48 kHz, MPEG Layer 3, 2 ch, ~128.00 kbps avg
Аудио 2: 48 kHz, MPEG Layer 3, 2 ch, ~128.00 kbps avg

MediaInfo

Кража [Воровка] - Lift [by Edich2].avi
Format : AVI
Format/Info : Audio Video Interleave
File size : 657 MiB
Duration : 1h 26mn
Overall bit rate : 1 066 Kbps
Video
ID : 0
Format : MPEG-4 Visual
Format settings, BVOP : Yes
Format settings, QPel : No
Format settings, GMC : No warppoints
Format settings, Matrix : Default (H.263)
Codec ID : DIVX
Codec ID/Info : Project Mayo
Codec ID/Hint : DivX 4
Duration : 1h 26mn
Bit rate : 802 Kbps
Width : 512 pixels
Height : 384 pixels
Display aspect ratio : 4:3
Frame rate : 23.976 fps
Color space : YUV
Chroma subsampling : 4:2:0
Bit depth : 8 bits
Scan type : Progressive
Compression mode : Lossy
Bits/(Pixel*Frame) : 0.170
Stream size : 495 MiB (75%)
Audio #1
ID : 1
Format : MPEG Audio
Format version : Version 1
Format profile : Layer 3
Codec ID : 55
Codec ID/Hint : MP3
Duration : 1h 26mn
Bit rate mode : Constant
Bit rate : 128 Kbps
Channel(s) : 2 channels
Sampling rate : 48.0 KHz
Compression mode : Lossy
Stream size : 79.0 MiB (12%)
Alignment : Split accross interleaves
Interleave, duration : 709 ms (17.00 video frames)
Audio #2
ID : 2
Format : MPEG Audio
Format version : Version 1
Format profile : Layer 3
Codec ID : 55
Codec ID/Hint : MP3
Duration : 1h 26mn
Bit rate mode : Constant
Bit rate : 128 Kbps
Channel(s) : 2 channels
Sampling rate : 48.0 KHz
Compression mode : Lossy
Stream size : 79.0 MiB (12%)
Alignment : Split accross interleaves
Interleave, duration : 709 ms (17.00 video frames)

Скриншоты


If your ratio falls below 0.3, you will not be able to download Torrents! More about the rating.

[erzsebet.pl].t929.torrent
Torrent: Registered [ 2017-12-02 17:26 ] · 070D99EEE2BCC59D40952AA02A856E740CE56CD2

Download .torrent

Download

13 KB

Status: checked
Completed: 16 times
Size: 657 MB
terms.php
[Profile] [PM]
Display posts:    
Reply to topic

Current time is: 16-Jan 18:30

All times are UTC ± 0



You cannot post new topics in this forum
You cannot reply to topics in this forum
You cannot edit your posts in this forum
You cannot delete your posts in this forum
You cannot vote in polls in this forum
You cannot attach files in this forum
You can download files in this forum