Ураган / Windfall (Джерри Лайвли / Gerry Lively) [2002, США, боевик, DVDRip] MVO (Союз Видео)

DL-List and Torrent activity
Size:  1.39 GB   |    Registered:  3 years 1 month   |    Completed:  16 times
Seeders:  3  
 
   
 
 

erzsebet.org ®

Longevity:
3 years 1 month
Posts:
47596

[Quote] 

Ураган / Windfall
Страна: США
Жанр: боевик
Год выпуска: 2002
Продолжительность: 01:41:59
Перевод: Профессиональный (многоголосый закадровый) Союз Видео
Субтитры: нет
Оригинальная аудиодорожка: нет
Режиссер: Джерри Лайвли / Gerry Lively
В ролях: Каспер Ван Дин, Грегг Генри, Либби Хадсон, Роберт Инглунд, Рэй Уайз, Сирил О’Райлли
Описание: Для двух удачливых воров — Эйса Логана и его напарника Скрэтча — профессиональная репутация гораздо важнее денег. Казино «Гранд Роял», оборудованное охранными системами по последнему слову техники — идеальное место, чтобы показать свое «мастерство».
Однако удача в этот раз отворачивается от Эйса — в самый последний момент охрана успевает схватить их на месте преступления. Восхищённый ловкостью и прытью двух друзей, владелец казино предлагает им выбор: тюремная роба или форма охранника казино. Кто бы мог предположить, что из бывших грабителей получатся отменные секьюрити?
Во время урагана, обрушившегося на город и сметающего всё на своем пути, они, рискуя жизнью, пытаются спасти невинных людей и предотвратить самое громкое ограбление казино за всю его историю.
Доп. информация:
За звуковую дорожку с лицензионной VHS от Союз Видео благодарим Fikaloid.
За синхронизацию звуковой дорожки большая благодарность JUSTKANT.
Качество видео: DVDRip
Формат видео: AVI
Видео: 720x544, 23.976 fps, MPEG-4 Visual, 1743 Kbps, XviD 1.2.0
Аудио: 48 KHz, AC3, 2 ch, 192 Kbps

MediaInfo

General
Complete name : G:\Кино\Ураган.avi
Format : AVI
Format/Info : Audio Video Interleave
File size : 1.39 GiB
Duration : 1h 41mn
Overall bit rate : 1 944 Kbps
Video
ID : 0
Format : MPEG-4 Visual
Format profile : Advanced [email protected]
Format settings, BVOP : 1
Format settings, QPel : No
Format settings, GMC : No warppoints
Format settings, Matrix : Default (H.263)
Codec ID : XVID
Codec ID/Hint : XviD
Duration : 1h 41mn
Bit rate : 1 743 Kbps
Width : 720 pixels
Height : 544 pixels
Display aspect ratio : 4:3
Frame rate : 23.976 fps
Color space : YUV
Chroma subsampling : 4:2:0
Bit depth : 8 bits
Scan type : Progressive
Compression mode : Lossy
Bits/(Pixel*Frame) : 0.186
Stream size : 1.24 GiB (90%)
Writing library : XviD 1.2.0.dev47 (UTC 2006-11-01)
Audio
ID : 1
Format : AC-3
Format/Info : Audio Coding 3
Mode extension : CM (complete main)
Format settings, Endianness : Big
Codec ID : 2000
Duration : 1h 41mn
Bit rate mode : Constant
Bit rate : 192 Kbps
Channel(s) : 2 channels
Channel positions : Front: L R
Sampling rate : 48.0 KHz
Bit depth : 16 bits
Compression mode : Lossy
Stream size : 140 MiB (10%)
Alignment : Split accross interleaves
Interleave, duration : 42 ms (1.00 video frame)
Interleave, preload duration : 500 ms

Скриншот c названием фильма

Скриншоты

If your ratio falls below 0.3, you will not be able to download Torrents! More about the rating.

[erzsebet.pl].t931.torrent
Torrent: Registered   [ 2017-12-02 17:26 ]

Download .torrent

Download

14 KB

Status: checked
Completed: 16 times
Size: 1.39 GB
terms.php

#1

02-Dec-2017 17:25

[Profile]  [PM] 
Display posts:    

You cannot post new topics in this forum
You cannot reply to topics in this forum
You cannot edit your posts in this forum
You cannot delete your posts in this forum
You cannot vote in polls in this forum
You cannot attach files in this forum
You can download files in this forum
User agreement
For copyright holders
Advertise on this site

Скачайте на халяву через торрент на трекере erzsebet.pl

!ATTENTION!
The site does not give electronic versions of products, and is engaged only in a collecting and cataloguing of the references sent and published at a forum by our readers. If you are the legal owner of any submitted material and do not wish that the reference to it was in our catalogue, contact us and we shall immediately remove her. Files for an exchange on tracker are given by users of a site, and the administration does not bear the responsibility for their maintenance. The request to not fill in the files protected by copyrights, and also files of the illegal maintenance!