Охотник / Искатель / The Finder / Trackdown (Фрэнк Шилдс / Frank Shields) [2001, Австралия, Боевик, драма, VHSRip] MVO (ЕА)

Reply to topic
DL-List and Torrent activity
Size:  1.37 GB   |    Registered:  3 years 1 month   |    Completed:  16 times

Seeder not seen: 3 years 1 month

 
   
 
 
Author Message

erzsebet.org ®

Longevity: 3 years 1 month

Posts: 47596

Post 02-Dec-2017 17:25

[Quote]

Охотник / Искатель / The Finder / Trackdown
Страна: Австралия
Жанр: Боевик, драма
Год выпуска: 2001
Продолжительность: 01:30:29
Перевод: Профессиональный (многоголосый закадровый) ЕА
Субтитры: нет
Режиссер: Фрэнк Шилдс / Frank Shields
В ролях: Саймон Вестэвей
Пол Меркурио
Аня Колеби
Элисон Крэтчли
Бэрри Лэнгриш
Алан Ловелл
Алан Чинис
Дитер Бруммер
Описание: Отставной полицейский и компьютерный эксперт Лес Керни специализируется на поисках пропавших людей. Пользуясь новейшими достижениями высоких технологий, он может найти любого человека в любом месте и в любое время.
Когда дочь строительного магната Боба Кастальди была похищена, Керни получил предложение от которого «невозможно отказаться», и которое должно обеспечить его на всю оставшуюся жизнь, если, конечно, ему удастся ее сохранить. Никакой полиции. Двадцать четыре часа. Все или ничего. Победа или смерть.
Приняв после некоторых колебаний предложение, Керни никак не мог предвидеть, что за последующие сутки его жизнь изменится самым неожиданным образом. И чем ближе он подходит к разгадке преступления, тем меньше у него шансов остаться в живых.
Доп. информация: За оцифровку VHS большое спасибо d_rocker
Релиз
Сэмпл: https://yadi.sk/i/ysOOEVpVugDyS
Качество видео: VHSRip
Формат видео: AVI
Видео: 704x528 (1.33:1), 25 fps, XviD build 73 ~1959 kbps avg, 0.21 bit/pixel
Аудио: 48 kHz, AC3 Dolby Digital, 2/0 (L,R) ch, ~192 kbps

MediaInfo

Охотник - The Finder [by Edich2].avi
Format : AVI
Format/Info : Audio Video Interleave
File size : 1.37 GiB
Duration : 1 h 30 min
Overall bit rate : 2 162 kb/s
Movie name : Охотник - The Finder [by Edich2]
Director : by Edich2
Writing application : VirtualDubMod 1.5.10.2 (build 2540/release)
Comment : erzsebet.org
Video
ID : 0
Format : MPEG-4 Visual
Format profile : Advanced [email protected]
Format settings, BVOP : 2
Format settings, QPel : No
Format settings, GMC : No warppoints
Format settings, Matrix : Custom
Codec ID : XVID
Codec ID/Hint : XviD
Duration : 1 h 30 min
Bit rate : 1 960 kb/s
Width : 704 pixels
Height : 528 pixels
Display aspect ratio : 4:3
Frame rate : 25.000 FPS
Color space : YUV
Chroma subsampling : 4:2:0
Bit depth : 8 bits
Scan type : Progressive
Compression mode : Lossy
Bits/(Pixel*Frame) : 0.211
Stream size : 1.24 GiB (91%)
Writing library : XviD 73
Audio
ID : 1
Format : AC-3
Format/Info : Audio Coding 3
Mode extension : CM (complete main)
Format settings, Endianness : Big
Codec ID : 2000
Duration : 1 h 30 min
Bit rate mode : Constant
Bit rate : 192 kb/s
Channel(s) : 2 channels
Channel positions : Front: L R
Sampling rate : 48.0 kHz
Frame rate : 31.250 FPS (1536 spf)
Compression mode : Lossy
Delay relative to video : 12 ms
Stream size : 124 MiB (9%)
Alignment : Split accross interleaves
Interleave, duration : 40 ms (1.00 video frame)
Interleave, preload duratio : 500 ms

Скриншоты



If your ratio falls below 0.3, you will not be able to download Torrents! More about the rating.

[erzsebet.pl].t932.torrent
Torrent: Registered [ 2017-12-02 17:26 ] · 3C20EC636F1148DA55CF8ED0CCA81C0E7B67DEAC

Download .torrent

Download

14 KB

Status: checked
Completed: 16 times
Size: 1.37 GB
terms.php
[Profile] [PM]
Display posts:    
Reply to topic

Current time is: 20-Jan 07:11

All times are UTC ± 0



You cannot post new topics in this forum
You cannot reply to topics in this forum
You cannot edit your posts in this forum
You cannot delete your posts in this forum
You cannot vote in polls in this forum
You cannot attach files in this forum
You can download files in this forum