Противостояние / Один / Единственный / Другой / The One (Джеймс Вонг / James Wong) [2001, США, фантастика, боевик, триллер, BDRip] MVO (СТС) + DVO (Россия 1) + DVO (TV1000 Action) + MVO (VHS) + AVO (Визгунов) + AVO (Дольский)

DL-List and Torrent activity
Size:  1.81 GB   |    Registered:  3 years 1 month   |    Completed:  16 times
Seeders:  3  
 
   
 
 

erzsebet.org ®

Longevity:
3 years 1 month
Posts:
47596

[Quote] 

Противостояние / Один / Единственный / Другой / The One-Что вы сделаете, узнав об убийце, который странствует по параллельным вселенным, уничтожая своих собственных двойников?
Этот чужак не знает пощады и теперь вам предстоит вступить в смертельное противостояние с ним.
Ведь этот злодей - ваша точная копия.
- Год выпуска: 2001
Страна: США
Жанр: фантастика, боевик, триллер
Продолжительность: 01:27:18
Перевод: Профессиональный (многоголосый закадровый) - СТС
Перевод 2: Профессиональный (двухголосый закадровый) - Россия 1
Перевод 3: Профессиональный (двухголосый закадровый) - TV1000 Action
Перевод 4: Профессиональный (многоголосый закадровый) - VHS
Перевод 5: Авторский (одноголосый закадровый) - Сергей Визгунов
Перевод 6: Авторский (одноголосый закадровый) - Андрей Дольский
Субтитры: нет
Режиссер: Джеймс Вонг / James Wong
В ролях: Джет Ли (Gabe Law / Gabriel Yulaw / Lawless), Джейсон Стэйтем (MVA Agent Evan Funsch), Карла Гуджино (T.K. Law / Massie Walsh), Делрой Линдо (MVA Agent Harry Roedecker / Gas Station Attendant), Джеймс Моррисон (LAPD Officer Bobby Aldrich / «A» World Inmate #1), Дилан Бруно (Yates), Ричард Стейнметц (D'Antoni), Стив Рэнкин (MVA Supervisor), Такер Смоллвуд (Prison Warden), Харриет Сэнсом Харрис (Nurse Besson)-Мировая премьера: 2 ноября 2001-Описание: Что делать, если твой мир рушится, когда в него вторгается безжалостный пришелец из параллельных миров? Стремясь стать сверхчеловеком, агент Межпространственного Бюро Расследований Юло совершает головокружительное сафари по параллельным мирам, охотясь за своими двойниками. Силы его растут с каждой новой жертвой, их жизненная энергия аккумулируется в нем, наделяя его невероятными способностями. Никто не знает, что случится с хрупким равновесием вселенных, если Юло достигнет своей цели — уничтожить всех двойников. Его мечта уже почти становится реальностью, когда на пути Юло становится Гэйб — полицейский из Лос-Анджелеса…-Благодарности:
Rick Alen - исходник видео.
Nikolai Michailovich - личная запись фильма с телеканала СТС через видеомагнитофон и оцифровка звука с видеокассеты.
Slim9174 - личная запись перевода от телеканала Россия 1 с телеканала Россия 2 через спутник.
RoxMarty - личная оцифровка многоголосого перевода со своей пиратской видеокассеты.
alenavova - личная запись двухголосого перевода с телеканала TV1000 Action через спутник.
d_rocker - личная оцифровка Визгунова со своей видеокассеты.
team_6strun - личная оцифровка Дольского со своей видеокассеты.
JUSTKANT - синхронизация переводов.-Данные переводы на трекере появляются впервые.-На русский язык фильм озвучен объединением "Русский дубляж" по заказу СТС в 2003 году.
Текст читают Александр Новиков, Виктор Петров и Ольга Сирина.
На русский язык фильм озвучен по заказу ВГТРК в 2011 году.
Женские роли озвучивает Наталья Казначеева.
TV1000 Action
Мужские роли озвучивает Александр Клюквин.-
Рейтинг

MPAA: PG-13 - Детям до 13 лет просмотр не желателен.-Качество видео: BDRip
Формат видео: AVI -> //Сэмпл//
Видео: XviD, 720x304 (2,35:1), 23.976 fps, 1794 kbps avg
Аудио:
1 - 48 khz, AC3 Dolby Digital, 2/0 (L,R) ch, ~192 kbps [СТС] VHSRip-ТВ
2 - 48 khz, AC3 Dolby Digital, 2/0 (L,R) ch, ~192 kbps [Россия 1 / Россия 2] SATRip
3 - 48 khz, AC3 Dolby Digital, 2/0 (L,R) ch, ~192 kbps [TV1000 Action] SATRip
4 - 48 khz, AC3 Dolby Digital, 2/0 (L,R) ch, ~192 kbps [MVO] VHSRip отдельным файлом
5 - 48 khz, AC3 Dolby Digital, 2/0 (L,R) ch, ~192 kbps [Визгунов] VHSRip отдельным файлом
6 - 48 khz, AC3 Dolby Digital, 2/0 (L,R) ch, ~192 kbps [Дольский] VHSRip отдельным файлом-ОБНОВЛЕНИЕ РЕЛИЗА ОТ 25.09.2017
Заменён видеоряд + добавлен в раздачу новый раритетный перевод от телеканала СТС
Просьба перескачать торрент!

MediaInfo

General
Complete name : D:\Противостояние\Противостояние (СТС + Россия 2 + TV1000 Action).avi
Format : AVI
Format/Info : Audio Video Interleave
File size : 1.46 GiB
Duration : 1 h 27 min
Overall bit rate : 2 389 kb/s
Movie name : Противостояние / Один / Единственный / Другой / The One (СТС + Россия 2 + TV1000 Action)
Director : JUSTKANT
Writing application : VirtualDubMod 1.5.10.3 (build 2550/release)
Copyright : Качество звука: СТС - VHSRipТВ (Nikolai Michailovich), Россия 2 - SATRip (Slim9174), TV1000 Action - SATRip (alenavova)
Comment : MVO - VHSRip (RoxMarty), Визгунов - VHSRip (d_rocker) и Дольский - VHSRip (team_6strun)
Video
ID : 0
Format : MPEG-4 Visual
Format profile : Advanced [email protected]
Format settings, BVOP : 1
Format settings, QPel : No
Format settings, GMC : No warppoints
Format settings, Matrix : Custom
Codec ID : XVID
Codec ID/Hint : XviD
Duration : 1 h 27 min
Bit rate : 1 794 kb/s
Width : 720 pixels
Height : 304 pixels
Display aspect ratio : 2.35:1
Frame rate : 23.976 (24000/1001) FPS
Color space : YUV
Chroma subsampling : 4:2:0
Bit depth : 8 bits
Scan type : Progressive
Compression mode : Lossy
Bits/(Pixel*Frame) : 0.342
Stream size : 1.09 GiB (75%)
Writing library : XviD 73
Audio #1
ID : 1
Format : AC-3
Format/Info : Audio Coding 3
Format settings, Endianness : Big
Codec ID : 2000
Duration : 1 h 27 min
Bit rate mode : Constant
Bit rate : 192 kb/s
Channel(s) : 2 channels
Channel positions : Front: L R
Sampling rate : 48.0 kHz
Frame rate : 31.250 FPS (1536 SPF)
Bit depth : 16 bits
Compression mode : Lossy
Stream size : 120 MiB (8%)
Alignment : Split accross interleaves
Interleave, duration : 42 ms (1.00 video frame)
Interleave, preload duratio : 500 ms
Title : СТС: Александр Новиков, Виктор Петров и Ольга Сирина
Service kind : Complete Main
Audio #2
ID : 2
Format : AC-3
Format/Info : Audio Coding 3
Format settings, Endianness : Big
Codec ID : 2000
Duration : 1 h 27 min
Bit rate mode : Constant
Bit rate : 192 kb/s
Channel(s) : 2 channels
Channel positions : Front: L R
Sampling rate : 48.0 kHz
Frame rate : 31.250 FPS (1536 SPF)
Bit depth : 16 bits
Compression mode : Lossy
Stream size : 120 MiB (8%)
Alignment : Split accross interleaves
Interleave, duration : 42 ms (1.00 video frame)
Interleave, preload duratio : 500 ms
Title : Россия 2: Василий Стрельников (???) и Наталья Казначеева
Service kind : Complete Main
Audio #3
ID : 3
Format : AC-3
Format/Info : Audio Coding 3
Format settings, Endianness : Big
Codec ID : 2000
Duration : 1 h 27 min
Bit rate mode : Constant
Bit rate : 192 kb/s
Channel(s) : 2 channels
Channel positions : Front: L R
Sampling rate : 48.0 kHz
Frame rate : 31.250 FPS (1536 SPF)
Bit depth : 16 bits
Compression mode : Lossy
Stream size : 120 MiB (8%)
Alignment : Split accross interleaves
Interleave, duration : 42 ms (1.00 video frame)
Interleave, preload duratio : 500 ms
Title : TV1000 Action: Александр Клюквин и ???
Service kind : Complete Main

Скриншот c названием фильма

Скриншоты

If your ratio falls below 0.3, you will not be able to download Torrents! More about the rating.

[erzsebet.pl].t940.torrent
Torrent: Registered   [ 2017-12-02 17:26 ]

Download .torrent

Download

19 KB

Status: checked
Completed: 16 times
Size: 1.81 GB
terms.php

#1

02-Dec-2017 17:25

[Profile]  [PM] 
Display posts:    

You cannot post new topics in this forum
You cannot reply to topics in this forum
You cannot edit your posts in this forum
You cannot delete your posts in this forum
You cannot vote in polls in this forum
You cannot attach files in this forum
You can download files in this forum
User agreement
For copyright holders
Advertise on this site

Скачайте на халяву через торрент на трекере erzsebet.pl

!ATTENTION!
The site does not give electronic versions of products, and is engaged only in a collecting and cataloguing of the references sent and published at a forum by our readers. If you are the legal owner of any submitted material and do not wish that the reference to it was in our catalogue, contact us and we shall immediately remove her. Files for an exchange on tracker are given by users of a site, and the administration does not bear the responsibility for their maintenance. The request to not fill in the files protected by copyrights, and also files of the illegal maintenance!