Закамуфлированный / Камуфляж / Camouflage (Джеймс Кич / James Keach) [2001, США, Канада, Детективная комедия, DVDRip] AVO (Сергей Визгунов) + Original Eng

Reply to topic
DL-List and Torrent activity
Size:  1.37 GB   |    Registered:  3 years 1 month   |    Completed:  16 times

Seeder not seen: Never

 
   
 
 
Author Message

erzsebet.org ®

Longevity: 3 years 1 month

Posts: 47596

Post 02-Dec-2017 17:25

[Quote]

Закамуфлированный / Камуфляж / Camouflage
Страна: США, Канада
Жанр: Детективная комедия
Год выпуска: 2001
Продолжительность: 01:32:46
Перевод: Авторский (одноголосый закадровый) Сергей Визгунов
Субтитры: нет
Оригинальная дорожка: английская
Режиссер: Джеймс Кич / James Keach
В ролях: Лесли Нильсен, Локлин Манро, Ванесса Энджел, Уильям Форсайт, Патрик Варбертон, Том Элдридж, Фрэнк Коллисон, Сюзанн Кралл, С. Эрнст Харт, Брам Тейлор
Описание: В комедии «Камуфляж» герой Нильсена — частный детектив. Обращаться к нему следует лишь уважительно — мистер Поттер. Если он будет к Вам особенно расположен, то, может быть, позволит называть себя просто Джеком.
Удивить его непросто: человек он бывалый и повидал всякое. В его карманной фляге вместо старого доброго виски давно плещется «Пепси», и он всерьез подумывает о том, чтобы «завязать» с частным сыском.
Старик Поттер уже собрался навсегда запереть свою контору, когда его начинающий напарник, Марти, расследовавший пустяковое дело в захолустном городке Бивер Ридж, стал невольным свидетелем убийства. Теперь торжественный выход на пенсию придется отложить, чтобы еще раз, как в старые добрые времена, поучаствовать в расследовании с погонями и стрельбой!
Доп. информация: Дорожка с С. Визгуновым синхронизирована и наложена ale_x2008 при помощи Adobe Audition, Sony Vegas и VirtualDubMod.
За оцифрованную с VHS дорожку благодарим - alenavova
Релиз
Сэмпл: https://yadi.sk/i/ujrRWzRH3NAhZh
Качество видео: DVDRip
Формат видео: AVI
Видео: XviD 720x544 (1.32:1), 25.00 fps, 1716 kbps avg, 0.17 bit/pixel
Аудио: AC3 Dolby Digital, 48000Hz 2/0 (L,R) ch (stereo), 192.00 kbps avg
Аудио 2: AC3 Dolby Digital, 48000Hz, 2/0 (L,R) ch (stereo), 192.00 kbps avg

MediaInfo

Камуфляж - Camouflage [by ale_x2008].avi
Format : AVI
Format/Info : Audio Video Interleave
File size : 1.37 GiB
Duration : 1h 32mn
Overall bit rate : 2 116 Kbps
Movie name : Камуфляж - Camouflage [by ale_x2008]
Director : by ale_x2008
Writing application : VirtualDubMod 1.5.10.3 (build 2550/release)
Copyright : Edich2
Comment : erzsebet.org
Video
ID : 0
Format : MPEG-4 Visual
Format profile : [email protected]
Format settings, BVOP : 1
Format settings, QPel : No
Format settings, GMC : No warppoints
Format settings, Matrix : Custom
Codec ID : XVID
Codec ID/Hint : XviD
Duration : 1h 32mn
Bit rate : 1 717 Kbps
Width : 720 pixels
Height : 544 pixels
Display aspect ratio : 4:3
Frame rate : 25.000 fps
Color space : YUV
Chroma subsampling : 4:2:0
Bit depth : 8 bits
Scan type : Progressive
Compression mode : Lossy
Bits/(Pixel*Frame) : 0.175
Stream size : 1.11 GiB (81%)
Writing library : XviD 1.0.1 (UTC 2004-06-05)
Audio #1
ID : 1
Format : AC-3
Format/Info : Audio Coding 3
Mode extension : CM (complete main)
Format settings, Endianness : Big
Codec ID : 2000
Duration : 1h 32mn
Bit rate mode : Constant
Bit rate : 192 Kbps
Channel(s) : 2 channels
Channel positions : Front: L R
Sampling rate : 48.0 KHz
Frame rate : 31.250 fps (1536 spf)
Compression mode : Lossy
Stream size : 127 MiB (9%)
Alignment : Split accross interleaves
Interleave, duration : 40 ms (1.00 video frame)
Interleave, preload duratio : 500 ms
Audio #2
ID : 2
Format : AC-3
Format/Info : Audio Coding 3
Mode extension : CM (complete main)
Format settings, Endianness : Big
Codec ID : 2000
Duration : 1h 32mn
Bit rate mode : Constant
Bit rate : 192 Kbps
Channel(s) : 2 channels
Channel positions : Front: L R
Sampling rate : 48.0 KHz
Frame rate : 31.250 fps (1536 spf)
Compression mode : Lossy
Stream size : 127 MiB (9%)
Alignment : Split accross interleaves
Interleave, duration : 40 ms (1.00 video frame)
Interleave, preload duratio : 500 ms

Скриншоты


ТОРРЕНТ ПЕРЕЗАЛИТ
ЗАМЕНА ДОРОЖКИ (ВИЗГУНОВ) НА БОЛЕЕ КАЧЕСТВЕННУЮ.

If your ratio falls below 0.3, you will not be able to download Torrents! More about the rating.

[erzsebet.pl].t944.torrent
Torrent: Registered [ 2017-12-02 17:26 ] · 3E8DC12370CFD1E74B9900C3C203327B10330F80

Download .torrent

Download

14 KB

Status: checked
Completed: 16 times
Size: 1.37 GB
terms.php
[Profile] [PM]
Display posts:    
Reply to topic

Current time is: 18-Jan 23:14

All times are UTC ± 0



You cannot post new topics in this forum
You cannot reply to topics in this forum
You cannot edit your posts in this forum
You cannot delete your posts in this forum
You cannot vote in polls in this forum
You cannot attach files in this forum
You can download files in this forum