Ледниковый удар / Frozen Impact (Нейл Кинселла) [2002, США, драма, фильм-катастрофа, SATRip]

Reply to topic
DL-List and Torrent activity
Size:  1.09 GB   |    Registered:  3 years 1 month   |    Completed:  16 times

Seeder not seen: Never

 
   
 
 
Author Message

erzsebet.org ®

Longevity: 3 years 1 month

Posts: 47596

Post 02-Dec-2017 17:25

[Quote]

Ледниковый удар / Frozen Impact
Год выпуска: 2002
Страна: США
Жанр: драма, фильм-катастрофа
Продолжительность: 01:27:33
Перевод: Профессиональный (многоголосый, закадровый)
Режиссер: Нейл Кинселла
В ролях: Ted McGinley, Linda Purl, Stacy Keach, Nicole Paggi, Myles Jeffrey, Leigh Allyn Baker, Grainger Hines, Joshua J. Masters, Bruce Perkins
Описание: Над горным хребтом в штате Вермонт собираются грозные тучи. Ледяные градины величиной с бейсбольный мяч обрушиваются на трейлер с охотниками, разбив его на куски и убив двух человек. Но разрушительная буря еще только начинается. А в близлежащем городе Ратленд семья Бланчардов с нетерпением ждет сообщений о донорской печени для 12-летнего Джейсона, которую должны привезти на специально оборудованном авиалайнере. Но самолет, попавший в штормовой фронт, вызванный бурей, падает на склон горы недалеко от города...
Качество: SATRip
Формат: AVI
Видео кодек: DivX
Аудио кодек: MPEG Audio
Видео: DivX 5 704x528 25.00fps 1589Kbps
Аудио: MPEG Audio 48000Hz stereo 192Kbps

MediaInfo

General
Complete name : H:\torrent\perezaliv\Ledovij_udar_[torrents.ru].avi
Format : AVI
Format/Info : Audio Video Interleave
File size : 1.09 GiB
Duration : 1 h 27 min
Overall bit rate : 1 789 kb/s
Writing application : VirtualDubMod 1.5.4.1 (build 2178/release)
Writing library : VirtualDubMod build 2178/release
Video
ID : 0
Format : MPEG-4 Visual
Format settings : BVOP1
Format settings, BVOP : 1
Format settings, QPel : No
Format settings, GMC : No warppoints
Format settings, Matrix : Default (H.263)
Muxing mode : Packed bitstream
Codec ID : DX50
Codec ID/Hint : DivX 5
Duration : 1 h 27 min
Bit rate : 1 589 kb/s
Nominal bit rate : 7 800 kb/s
Width : 704 pixels
Height : 528 pixels
Display aspect ratio : 4:3
Frame rate : 25.000 FPS
Color space : YUV
Chroma subsampling : 4:2:0
Bit depth : 8 bits
Scan type : Progressive
Compression mode : Lossy
Bits/(Pixel*Frame) : 0.171
Stream size : 995 MiB (89%)
Writing library : DivX 6.8.0 (UTC 2007-12-04)
Audio
ID : 1
Format : MPEG Audio
Format version : Version 1
Format profile : Layer 2
Codec ID : 50
Duration : 1 h 27 min
Bit rate mode : Constant
Bit rate : 192 kb/s
Channel(s) : 2 channels
Sampling rate : 48.0 kHz
Compression mode : Lossy
Stream size : 120 MiB (11%)
Alignment : Aligned on interleaves
Interleave, duration : 80 ms (2.00 video frames)
Interleave, preload duration : 504 ms

Скриншоты

If your ratio falls below 0.3, you will not be able to download Torrents! More about the rating.

[erzsebet.pl].t957.torrent
Torrent: Registered [ 2017-12-02 17:26 ] · 0FB0E5CBC58CF45EA52C02DEB7BF20F66C2AD3C2

Download .torrent

Download

11 KB

Status: checked
Completed: 16 times
Size: 1.09 GB
terms.php
[Profile] [PM]
Display posts:    
Reply to topic

Current time is: 23-Jan 13:43

All times are UTC ± 0



You cannot post new topics in this forum
You cannot reply to topics in this forum
You cannot edit your posts in this forum
You cannot delete your posts in this forum
You cannot vote in polls in this forum
You cannot attach files in this forum
You can download files in this forum