15 минут славы / 15 Minutes (Джон Херцфелд / John Herzfeld) [2001, США, Германия, боевик, триллер, драма, криминал, BDRip] DVO (Garsu Pasaulis) + AVO (Дольский) + Original Eng

Reply to topic
DL-List and Torrent activity
Size:  2.18 GB   |    Registered:  3 years 1 month   |    Completed:  16 times

Seeder not seen: Never

 
   
 
 
Author Message

erzsebet.org ®

Longevity: 3 years 1 month

Posts: 47596

Post 02-Dec-2017 17:25

[Quote]

15 минут славы / 15 Minutes
Год выпуска: 2001
Страна: США, Германия
Жанр: боевик, триллер, драма, криминал
Продолжительность: 02:00:41
Перевод: Профессиональный (двухголосый закадровый) - Garsu Pasaulis
Перевод 2: Авторский (одноголосый закадровый) - Андрей Дольский
Субтитры: нет
Оригинальная аудиодорожка: английский
Режиссер: Джон Херцфелд / John Herzfeld
В ролях: Роберт Де Ниро / Detective Eddie Flemming, Эдвард Бёрнс / Fire Marshal Jordy Warsaw, Келси Грэммер / Robert Hawkins, Эйвери Брукс / Detective Leon Jackson, Мелина Канакаридис / Nicolette Karas, Карел Роден / Emil Slovak, Олег Тактаров / Oleg Razgul, Вера Фармига / Daphne Handlova, Джон ДиРеста / Bobby Korfin, Джеймс Хэнди / Deputy Chief Fire Marshal Declan Duffy-Мировая премьера: 1 марта 2001-Описание: Отбыв тюремный срок за ограбление банка, бандиты Эмиль и Олег приезжают в Нью-Йорк, намереваясь получить свою долю украденных денег. После отказа третьего "подельника" делиться деньгами, Эмиль и Олег расправляются с ним, снимая происходящее на видеокамеру. Это убийство становится первым в череде жестоких преступлений, каждое их которых психопаты фиксируют на пленку. Накопив достаточно "материала", убийцы решают продать его на телевидение...-Огромная благодарность:
teko - видеоряд
Fikaloid - личная оцифровка перевода со своей лицензионной видеокассеты от латвийской видео-компании Garsu Pasaulis.
Evil ED 86 - личная оцифровка Дольского со своей видеокассеты.
JUSTKANT - синхронизация переводов.-Данные переводы на трекере появляются впервые.-На русский язык фильм озвучен по заказу Garsu Pasaulis.
Текст читают Олег Курдюков и Елена Богданович.-
Рейтинг

MPAA: R - Лицам до 17 лет обязательно присутствие взрослого.-Качество видео: BDRip
Формат видео: AVI -> //Сэмпл//
Видео: XviD, 720x304 (2.35:1), 23.976 fps, 1792 kbps
Аудио:
1 - 48 khz, AC3 Dolby Digital, 2/0 (L,R) ch, ~192 kbps [Garsu Pasaulis] VHSRip
2 - 48 khz, AC3 Dolby Digital, 2/0 (L,R) ch, ~192 kbps [Дольский] VHSRip
3 - 48 khz, AC3 Dolby Digital, 5/1 ch, ~384 kbps [Английский]

MediaInfo

General
Complete name : D:\15 минут славы (Garsu Pasaulis + Дольский + Оригинал).avi
Format : AVI
Format/Info : Audio Video Interleave
Format profile : OpenDML
File size : 2.18 GiB
Duration : 2 h 0 min
Overall bit rate : 2 584 kb/s
Movie name : 15 минут славы / 15 Minutes (Garsu Pasaulis + Дольский + Оригинал)
Director : JUSTKANT
Writing application : VirtualDubMod 1.5.10.3 (build 2550/release)
Copyright : На русский язык фильм озвучен на студии Garsu Pasaulis
Comment : Качество звука: Garsu Pasaulis - VHSRip (Fikaloid) и Дольский - VHSRip (Evil ED 86)
Video
ID : 0
Format : MPEG-4 Visual
Format profile : Advanced [email protected]
Format settings, BVOP : 1
Format settings, QPel : No
Format settings, GMC : No warppoints
Format settings, Matrix : Custom
Codec ID : XVID
Codec ID/Hint : XviD
Duration : 2 h 0 min
Bit rate : 1 792 kb/s
Width : 720 pixels
Height : 304 pixels
Display aspect ratio : 2.35:1
Frame rate : 23.976 (24000/1001) FPS
Original frame rate : 23.976 (23976/1000) FPS
Color space : YUV
Chroma subsampling : 4:2:0
Bit depth : 8 bits
Scan type : Progressive
Compression mode : Lossy
Bits/(Pixel*Frame) : 0.341
Stream size : 1.51 GiB (69%)
Writing library : XviD 73
Audio #1
ID : 1
Format : AC-3
Format/Info : Audio Coding 3
Format settings, Endianness : Big
Codec ID : 2000
Duration : 2 h 0 min
Bit rate mode : Constant
Bit rate : 192 kb/s
Channel(s) : 2 channels
Channel positions : Front: L R
Sampling rate : 48.0 kHz
Frame rate : 31.250 FPS (1536 SPF)
Bit depth : 16 bits
Compression mode : Lossy
Stream size : 166 MiB (7%)
Alignment : Split accross interleaves
Interleave, duration : 42 ms (1.00 video frame)
Interleave, preload duratio : 500 ms
Title : Garsu Pasaulis: Олег Курдюков и Елена Богданович
Service kind : Complete Main
Audio #2
ID : 2
Format : AC-3
Format/Info : Audio Coding 3
Format settings, Endianness : Big
Codec ID : 2000
Duration : 2 h 0 min
Bit rate mode : Constant
Bit rate : 192 kb/s
Channel(s) : 2 channels
Channel positions : Front: L R
Sampling rate : 48.0 kHz
Frame rate : 31.250 FPS (1536 SPF)
Bit depth : 16 bits
Compression mode : Lossy
Stream size : 166 MiB (7%)
Alignment : Split accross interleaves
Interleave, duration : 42 ms (1.00 video frame)
Interleave, preload duratio : 500 ms
Title : Андрей Дольский (VHSRip)
Service kind : Complete Main
Audio #3
ID : 3
Format : AC-3
Format/Info : Audio Coding 3
Format settings, Endianness : Big
Codec ID : 2000
Duration : 2 h 0 min
Bit rate mode : Constant
Bit rate : 384 kb/s
Channel(s) : 6 channels
Channel positions : Front: L C R, Side: L R, LFE
Sampling rate : 48.0 kHz
Frame rate : 31.250 FPS (1536 SPF)
Bit depth : 16 bits
Compression mode : Lossy
Stream size : 331 MiB (15%)
Alignment : Split accross interleaves
Interleave, duration : 42 ms (1.00 video frame)
Interleave, preload duratio : 500 ms
Title : Оригинальный (английский)
Service kind : Complete Main

Скриншот c названием фильма

Скриншоты

If your ratio falls below 0.3, you will not be able to download Torrents! More about the rating.

[erzsebet.pl].t958.torrent
Torrent: Registered [ 2017-12-02 17:26 ] · 2FD7537227618686AD718E4029D632B56876E48A

Download .torrent

Download

12 KB

Status: checked
Completed: 16 times
Size: 2.18 GB
terms.php
[Profile] [PM]
Display posts:    
Reply to topic

Current time is: 26-Jan 07:56

All times are UTC ± 0



You cannot post new topics in this forum
You cannot reply to topics in this forum
You cannot edit your posts in this forum
You cannot delete your posts in this forum
You cannot vote in polls in this forum
You cannot attach files in this forum
You can download files in this forum