Регулировщик / Уличный регулировщик / Il Vigile (Луиджи Дзампа / Luigi Zampa) [1960, Италия, комедия, VHSRip] VO

Reply to topic
DL-List and Torrent activity
Size:  1.37 GB   |    Registered:  3 years 1 month   |    Completed:  16 times

Seeder not seen: 3 years 1 month

 
   
 
 
Author Message

erzsebet.org ®

Longevity: 3 years 1 month

Posts: 47596

Post 02-Dec-2017 16:06

[Quote]

Регулировщик / Уличный регулировщик / Il Vigile
Страна: Италия
Жанр: комедия
Год выпуска: 1960
Продолжительность: 01:28:29
Перевод: Одноголосый закадровый
Субтитры: нет
Режиссер: Луиджи Дзампа / Luigi Zampa
В ролях: Альберто Сорди, Мариса Мерлини, Витторио Де Сика, Нандо Бруно, Сильва Кошина
Описание: Безработному Отелло Челетти, благодаря счастливой случайности (его сын спас утопающего сына члена городского совета) и его навязчивой настойчивости, удается получить работу в качестве полицейского мотоциклиста. Важность и прелесть новой работы сменяются желанием отомстить за страдания и компенсировать свои амбиции. Но судьба Отелло приносит большое удивление, когда в один прекрасный день он встречает на трассе актрису Сильвию Koшину, у которой сломался автомобиль. Отелло помогает ей но пренебрегает служебными обязанностями. Актриса рассказывает об этом во время телевизионной передачи, чем вызывает гнев мэра, который ставит в вину Отелло Челетти протекционизм. Отелло понимает его буквально, и начинает проявлять ультра-ревностный и негибкий метод работы, поэтому, когда он останавливает автомобиль мэра за превышение скорости, штраф, несмотря, на бурные протесты мэра, приводит к суду и размышлениям о месте человека в этой жизни…
Доп. информация: Оцифровка VHS (личный архив) и получение VHSRip alenavova
Эксклюзив для erzsebet.org. При размещении данного релиза на других сайтах ссылка на автора alenavova обязательна.
Релиз
Сэмпл: https://yadi.sk/i/UBdai98C3PXWn2
Качество видео: VHSRip
Формат видео: AVI
Видео: 704x464 (1.52:1), 25 fps, XviD build 73 ~2008 kbps avg, 0.25 bit/pixel
Аудио: 48 kHz, AC3 Dolby Digital, 2/0 (L,R) ch, ~192 kbps

MediaInfo

Уличный регулировщик - Il Vigile [by alenavova].avi
Format : AVI
Format/Info : Audio Video Interleave
File size : 1.37 GiB
Duration : 1 h 28 min
Overall bit rate : 2 210 kb/s
Movie name : Уличный регулировщик - Il Vigile [by alenavova]
Director : by alenavova
Writing application : VirtualDubMod 1.5.10.3 | www.virtualdub-fr.org || (build 2550/release)
Copyright : Edich2
Comment : erzsebet.org
Video
ID : 0
Format : MPEG-4 Visual
Format profile : Advanced [email protected]
Format settings, BVOP : 2
Format settings, QPel : No
Format settings, GMC : No warppoints
Format settings, Matrix : Custom
Codec ID : XVID
Codec ID/Hint : XviD
Duration : 1 h 28 min
Bit rate : 2 008 kb/s
Width : 704 pixels
Height : 464 pixels
Display aspect ratio : 3:2
Frame rate : 25.000 FPS
Color space : YUV
Chroma subsampling : 4:2:0
Bit depth : 8 bits
Scan type : Progressive
Compression mode : Lossy
Bits/(Pixel*Frame) : 0.246
Stream size : 1.24 GiB (91%)
Writing library : XviD 73
Audio
ID : 1
Format : AC-3
Format/Info : Audio Coding 3
Format settings, Endianness : Big
Codec ID : 2000
Duration : 1 h 28 min
Bit rate mode : Constant
Bit rate : 192 kb/s
Channel(s) : 2 channels
Channel positions : Front: L R
Sampling rate : 48.0 kHz
Frame rate : 31.250 FPS (1536 spf)
Bit depth : 16 bits
Compression mode : Lossy
Stream size : 122 MiB (9%)
Alignment : Split accross interleaves
Interleave, duration : 40 ms (1.00 video frame)
Interleave, preload duratio : 500 ms
Service kind : Complete Main

Скриншоты


If your ratio falls below 0.3, you will not be able to download Torrents! More about the rating.

[erzsebet.pl].t97.torrent
Torrent: Registered [ 2017-12-02 16:06 ] · E53C89D3F7A970B3F8E68D7C5DBD5ADAFC90B0F8

Download .torrent

Download

14 KB

Status: checked
Completed: 16 times
Size: 1.37 GB
terms.php
[Profile] [PM]
Display posts:    
Reply to topic

Current time is: 27-Jan 13:06

All times are UTC ± 0



You cannot post new topics in this forum
You cannot reply to topics in this forum
You cannot edit your posts in this forum
You cannot delete your posts in this forum
You cannot vote in polls in this forum
You cannot attach files in this forum
You can download files in this forum