Три икса 2: Новый уровень / xXx: State of the Union (Ли Тамахори / Lee Tamahori) [2005, США, боевик, триллер, криминал, WEBRip] [Open Matte] Dub

Reply to topic
DL-List and Torrent activity
Size:  1.41 GB   |    Registered:  3 years 1 month   |    Completed:  16 times

Seeder not seen: Never

 
   
 
 
Author Message

erzsebet.org ®

Longevity: 3 years 1 month

Posts: 47596

Post 02-Dec-2017 17:25

[Quote]

Три икса 2: Новый уровень / xXx: State of the Union / Open Matte
Страна: США
Жанр: боевик, триллер, криминал
Год выпуска: 2005
Продолжительность: 01:40:53
Перевод: Профессиональный (дублированный)
Субтитры: нет
Режиссер: Ли Тамахори / Lee Tamahori
В ролях: Уиллем Дефо, Сэмюэл Л. Джексон, Айс Кьюб, Скотт Спидман, Иксзибит, Питер Штраусс, Майкл Руф, Санни Мабри, Нона Гэй, Джон Глисон Коннолли
Описание: Америка снова в опасности, и на сей раз беда пришла откуда не ждали: удар по демократии был нанесен изнутри! Группа высокопоставленных заговорщиков в белом доме поднимает мятеж с целью захвата власти. Спецслужбы бессильны — бунтовщики разгромили Агентство Национальной Безопасности (АНБ).
Страна на грани хаоса и террора, но у чудом выжившего офицера АНБ Огастеса Гиббонса остается последний козырь, способный спасти положение. Это Дариус Стоун, крутой и хладнокровный суперагент XXI века, отобранный по сверхсекретной программе «Три Икса». Оставляя после себя смерть и разрушения, этот человек-армия вступает в битву, которая решит судьбу Америки и всего мира…
Сэмпл: https://www.sendspace.com/file/dfj42e
Качество видео: WEBRip
Формат видео: AVI
Видео: xvid, 720:400, 16:9, 23.976 fps, 1800 Kbps
Аудио: MP3, 48 KHz, 192 Kbps, Dual mono

MediaInfo

General
Complete name : D:\Три икса 2 Новый уровень (2005) [Open Matte].avi
Format : AVI
Format/Info : Audio Video Interleave
File size : 1.41 GiB
Duration : 1h 40mn
Overall bit rate : 2 001 Kbps
Writing application : Lavf55.19.104
Writing library : VirtualDub build 32706/release
Video
ID : 0
Format : xvid
Codec ID : xvid
Duration : 1h 40mn
Bit rate : 1 799 Kbps
Width : 720 pixels
Height : 400 pixels
Display aspect ratio : 16:9
Frame rate : 23.976 fps
Bits/(Pixel*Frame) : 0.261
Stream size : 1.27 GiB (90%)
Audio
ID : 1
Format : MPEG Audio
Format version : Version 1
Format profile : Layer 3
Mode : Dual mono
Codec ID : 55
Codec ID/Hint : MP3
Duration : 1h 40mn
Bit rate mode : Constant
Bit rate : 192 Kbps
Channel(s) : 2 channels
Sampling rate : 48.0 KHz
Compression mode : Lossy
Stream size : 139 MiB (10%)
Alignment : Split accross interleaves
Interleave, duration : 42 ms (1.00 video frame)
Interleave, preload duration : 500 ms

Скриншоты

If your ratio falls below 0.3, you will not be able to download Torrents! More about the rating.

[erzsebet.pl].t973.torrent
Torrent: Registered [ 2017-12-02 17:26 ] · 108CB49558320FA38E947311CF6FBE93C698434A

Download .torrent

Download

15 KB

Status: checked
Completed: 16 times
Size: 1.41 GB
terms.php
[Profile] [PM]
Display posts:    
Reply to topic

Current time is: 23-Jan 15:10

All times are UTC ± 0



You cannot post new topics in this forum
You cannot reply to topics in this forum
You cannot edit your posts in this forum
You cannot delete your posts in this forum
You cannot vote in polls in this forum
You cannot attach files in this forum
You can download files in this forum