Комната страха / Panic Room (Дэвид Финчер / David Fincher) [2002, США, триллер, драма, криминал, HDTVRip] AVO (Андрей Гаврилов)

Reply to topic
DL-List and Torrent activity
Size:  1.45 GB   |    Registered:  3 years 1 month   |    Completed:  16 times

Seeder not seen: Never

 
   
 
 
Author Message

erzsebet.org ®

Longevity: 3 years 1 month

Posts: 47596

Post 02-Dec-2017 17:25

[Quote]

Комната страха / Panic Room
Страна: США
Жанр: триллер, драма, криминал
Год выпуска: 2002
Продолжительность: 01:44:22
Перевод: Авторский (одноголосый закадровый) Андрей Гаврилов
Субтитры: нет
Режиссер: Дэвид Финчер / David Fincher
В ролях: Джоди Фостер, Кристен Стюарт, Форест Уитакер, Дуайт Йоакам, Джаред Лето, Патрик Бошо, Энн Магнусон, Йен Бьюкэнэн, Мэл Родригез

Описание: Мэг Олтман развелась со своим мужем, и теперь они с дочерью Сарой переезжают на новую квартиру на Манхэттене, доставшуюся им при разделе имущества. Когда женщина прогуливается по элитному жилью, её внимание привлекает комната, которая внутри намного меньше, чем снаружи. Адвокат бракоразводного процесса героини объясняет, что это бункер, убежище укреплено и оснащено системой видеонаблюдения, внутри имеется месячный запас продовольствия. Женщина не понимает, для чего нужно это помещение, но вскоре загадочная комната становится для неё и дочери единственным спасением...
Сэмпл: http://multi-up.com/1167856
Качество видео: HDTVRip (Исходник Panic Room. 2002. OpenMatte. HDTV (1080i) - ylnian.mkv / KinoZal)
Формат видео: AVI
Видео: XviD 73, 720x400, (16:9), 25,000 fps, 1593 Кбит/с, 8 бит, 0.22 bit/pixel
Аудио: Русский (АС3, 6 ch (Front: L C R, Side: L R, LFE), 48,0 KHz, 384 Kbps)

MediaInfo

Общее
Полное имя : D:\Видеофильмы\В и д е о\Комната страха (триллер, криминал 2002 год).avi
Формат : AVI
Формат/Информация : Audio Video Interleave
Размер файла : 1,45 Гбайт
Продолжительность : 1 ч. 44 м.
Общий поток : 1987 Кбит/сек
Программа кодирования : VirtualDubMod 1.5.10.3 | www.virtualdub-fr.org || (build 2550/release)
Библиотека кодирования : VirtualDubMod build 2550/release
Видео
Идентификатор : 0
Формат : MPEG-4 Visual
Профиль формата : Advanced [email protected]
Параметр BVOP формата : 2
Параметр QPel формата : Нет
Параметр GMC формата : Без точки перехода
Параметр матрицы формата : Выборочная
Идентификатор кодека : XVID
Идентификатор кодека/Подсказка : XviD
Продолжительность : 1 ч. 44 м.
Битрейт : 1593 Кбит/сек
Ширина : 720 пикселей
Высота : 400 пикселей
Соотношение сторон : 16:9
Частота кадров : 25,000 кадров/сек
Цветовое пространство : YUV
Субдискретизация насыщенности : 4:2:0
Битовая глубина : 8 бит
Тип развёртки : Прогрессивная
Метод сжатия : С потерями
Бит/(Пиксели*Кадры) : 0.221
Размер потока : 1,16 Гбайт (80%)
Библиотека кодирования : XviD 73
Аудио
Идентификатор : 1
Формат : AC-3
Формат/Информация : Audio Coding 3
Расширение режима : CM (complete main)
Параметр Endianness формата : Big
Идентификатор кодека : 2000
Продолжительность : 1 ч. 44 м.
Вид битрейта : Постоянный
Битрейт : 384 Кбит/сек
Каналы : 6 каналов
Расположение каналов : Front: L C R, Side: L R, LFE
Частота : 48,0 КГц
Частота кадров : 31,250 кадров/сек (1536 spf)
Метод сжатия : С потерями
Размер потока : 286 Мбайт (19%)
Выравнивание : Разделение по промежуткам
Продолжительность промежутка : 40 мс. (1,00 видеокадр)
Время предзагрузки промежутка : 500 мс.

Скриншот c названием фильма

Скриншоты

If your ratio falls below 0.3, you will not be able to download Torrents! More about the rating.

[erzsebet.pl].t979.torrent
Torrent: Registered [ 2017-12-02 17:26 ] · 40D17C63E9105705771AE9F5EC358C467C7D2C06

Download .torrent

Download

15 KB

Status: checked
Completed: 16 times
Size: 1.45 GB
terms.php
[Profile] [PM]
Display posts:    
Reply to topic

Current time is: 23-Jan 23:59

All times are UTC ± 0



You cannot post new topics in this forum
You cannot reply to topics in this forum
You cannot edit your posts in this forum
You cannot delete your posts in this forum
You cannot vote in polls in this forum
You cannot attach files in this forum
You can download files in this forum