Чужой против Хищника (Расширенная версия) / Alien vs Predator (Extreme Unrated) (Пол У. С. Андерсон / Paul W.S. Anderson) [2004, США, боевик, приключения, фантастика, HDRip] AVO (Андрей Гаврилов) + вставки MVO

Reply to topic
DL-List and Torrent activity
Size:  1.44 GB   |    Registered:  3 years 1 month   |    Completed:  16 times

Seeder not seen: Never

 
   
 
 
Author Message

erzsebet.org ®

Longevity: 3 years 1 month

Posts: 47596

Post 02-Dec-2017 17:25

[Quote]

Чужой против Хищника (Расширенная версия) / Alien vs Predator (Extreme Unrated)
Страна: США
Жанр: боевик, приключения, фантастика
Год выпуска: 2004
Продолжительность: 01:48:41
Перевод: Авторский (одноголосый закадровый) Андрей Гаврилов + (вставки МVO)
Субтитры: нет
Режиссер: Пол У. С. Андерсон / Paul W.S. Anderson
В ролях: Санаа Лэтэн, Рауль Бова, Лэнс Хенриксен, Юэн Бремнер, Колин Сэлмон, Томми Флэнаган, Джозеф Рай, Агат Де Ла Булае, Карстен Норгаард
Описание: На острове возле Антарктиды ученые обнаруживают неопознанный источник тепла. В экспедиционную группу входят лучшие специалисты – скалолазы, археологи, географы, военные. Под массивным слоем льда они видят несколько странных пирамид. Внутри них содержатся лабиринты, наполненные высоко-технологическим оружием и очень страшными живыми существами – Чужими в эмбриональном состоянии. К тому же, людей и животных преследуют три инопланетянина-Хищника. Чтобы не погибнуть, исследователям остается только договориться с охотником и сообща уничтожить чудовищ.
Сэмпл: http://multi-up.com/1167490
Качество видео: HDRip (Исходник AVP.Alien.vs.Predator.2004.x264.BDRip.1080p.UNRATED.mkv / KinoZal)
Формат видео: AVI
Видео: XviD 73, 720x304, (2,35:1), 23,976 fps, 1668 Кбит/с, 8 бит, 0.31 bit/pixel
Аудио: Русский (АС3, 2 ch (Front: L R), 48,0 KHz, (stereo) 224 Kbps)

MediaInfo

Общее
Полное имя : D:\Видеофильмы\В и д е о\Чужой против Хищника (боевик, фантастика 2004 год).avi
Формат : AVI
Формат/Информация : Audio Video Interleave
Размер файла : 1,44 Гбайт
Продолжительность : 1 ч. 48 м.
Общий поток : 1901 Кбит/сек
Программа кодирования : VirtualDubMod 1.5.10.3 | www.virtualdub-fr.org || (build 2550/release)
Библиотека кодирования : VirtualDubMod build 2550/release
Видео
Идентификатор : 0
Формат : MPEG-4 Visual
Профиль формата : Advanced [email protected]
Параметр BVOP формата : 2
Параметр QPel формата : Нет
Параметр GMC формата : Без точки перехода
Параметр матрицы формата : Выборочная
Идентификатор кодека : XVID
Идентификатор кодека/Подсказка : XviD
Продолжительность : 1 ч. 48 м.
Битрейт : 1668 Кбит/сек
Ширина : 720 пикселей
Высота : 304 пикселя
Соотношение сторон : 2,35:1
Частота кадров : 23,976 (23976/1000) кадра/сек
Цветовое пространство : YUV
Субдискретизация насыщенности : 4:2:0
Битовая глубина : 8 бит
Тип развёртки : Прогрессивная
Метод сжатия : С потерями
Бит/(Пиксели*Кадры) : 0.318
Размер потока : 1,27 Гбайт (88%)
Библиотека кодирования : XviD 73
Аудио
Идентификатор : 1
Формат : AC-3
Формат/Информация : Audio Coding 3
Расширение режима : CM (complete main)
Параметр Endianness формата : Big
Идентификатор кодека : 2000
Продолжительность : 1 ч. 48 м.
Вид битрейта : Постоянный
Битрейт : 224 Кбит/сек
Каналы : 2 канала
Расположение каналов : Front: L R
Частота : 48,0 КГц
Частота кадров : 31,250 кадров/сек (1536 spf)
Метод сжатия : С потерями
Размер потока : 174 Мбайт (12%)
Выравнивание : Разделение по промежуткам
Продолжительность промежутка : 42 мс. (1,00 видеокадр)
Время предзагрузки промежутка : 500 мс.

Скриншот c названием фильма

Скриншоты

If your ratio falls below 0.3, you will not be able to download Torrents! More about the rating.

[erzsebet.pl].t981.torrent
Torrent: Registered [ 2017-12-02 17:26 ] · 1BE998F4999DF77A2212F669FAE46FD73550CED3

Download .torrent

Download

15 KB

Status: checked
Completed: 16 times
Size: 1.44 GB
terms.php
[Profile] [PM]
Display posts:    
Reply to topic

Current time is: 21-Jan 18:18

All times are UTC ± 0



You cannot post new topics in this forum
You cannot reply to topics in this forum
You cannot edit your posts in this forum
You cannot delete your posts in this forum
You cannot vote in polls in this forum
You cannot attach files in this forum
You can download files in this forum