Свидание вслепую / Pgisha Iveret (Хаим Бузагло / Haim Bouzaglo) [2003, Израиль, мелодрама, комедия, TVRip-AVC] Original Heb + Sub Rus

Reply to topic
DL-List and Torrent activity
Size:  620 MB   |    Registered:  3 years 1 month   |    Completed:  16 times

Seeder not seen: Never

 
   
 
 
Author Message

erzsebet.org ®

Longevity: 3 years 1 month

Posts: 47596

Post 02-Dec-2017 17:25

[Quote]

Свидание вслепую / Pgisha Iveret
Страна: Израиль
Жанр: мелодрама, комедия
Год выпуска: 2003
Продолжительность: 01:46:08
Перевод: Субтитры (Транс Тайтлс ЛТД)
Субтитры: русские
Оригинальная аудиодорожка: иврит
Режиссер: Хаим Бузагло / Haim Bouzaglo
В ролях: Шираз Таль, Ярон Финк, Синая Бен-Дор, Хаим Занати, Лирит Мэш, Рафи Амзалег, Оффер Шалев, Лиза Мемо, Хаим Бузагло, Саша Черниховски
Описание: Молодая израильтянка неожиданно начинает получать цветы и открытки от незнакомца из Парижа. Вскоре девушка получает приглашение приехать в Париж на свидание и, несмотря на предостережения подруг, решается ехать. Свидание с незнакомцем проходит в полной темноте, а утром он исчезает, так и не показав своё лицо...
Доп. информация: КиноПоиск, IMDb
Сэмпл: https://www.mediafire.com/file/ci64nzp3ezk1j4z/Sample_Pgisha_Iveret.mp4
Качество видео: TVRip
Формат видео: MP4
Видео: AVC 640х480 4:3 25 кадров/сек 660 Кбит/сек
Аудио: Аудио: AAC 44.1 КГц 2 канала 160 Кбит/сек
Формат субтитров: hardsub (неотключаемые)

MediaInfo

Общее
Полное имя : Свидание вслепую.mp4
Формат : MPEG-4
Профиль формата : Base Media
Идентификатор кодека : isom
Размер файла : 620 Мбайт
Продолжительность : 1 ч. 46 м.
Режим общего битрейта : Переменный
Общий поток : 817 Кбит/сек
Программа кодирования : Lavf56.25.101
Видео
Идентификатор : 1
Формат : AVC
Формат/Информация : Advanced Video Codec
Профиль формата : [email protected]
Параметр CABAC формата : Нет
Параметр ReFrames формата : 3 кадра
Параметр GOP формата : M=1, N=25
Идентификатор кодека : avc1
Идентификатор кодека/Информация : Advanced Video Coding
Продолжительность : 1 ч. 46 м.
Битрейт : 660 Кбит/сек
Ширина : 640 пикселей
Высота : 480 пикселей
Соотношение сторон : 4:3
Режим частоты кадров : Постоянный
Частота кадров : 25,000 кадров/сек
Цветовое пространство : YUV
Субдискретизация насыщенности : 4:2:0
Битовая глубина : 8 бит
Тип развёртки : Прогрессивная
Бит/(Пиксели*Кадры) : 0.086
Размер потока : 501 Мбайт (81%)
Библиотека кодирования : x264 core 142
Настройки программы : cabac=0 / ref=3 / deblock=1:0:0 / analyse=0x1:0x111 / me=hex / subme=7 / psy=1 / psy_rd=1.00:0.00 / mixed_ref=1 / me_range=16 / chroma_me=1 / trellis=1 / 8x8dct=0 / cqm=0 / deadzone=21,11 / fast_pskip=1 / chroma_qp_offset=-2 / threads=4 / lookahead_threads=1 / sliced_threads=0 / nr=0 / decimate=1 / interlaced=0 / bluray_compat=0 / constrained_intra=0 / bframes=0 / weightp=0 / keyint=25 / keyint_min=2 / scenecut=40 / intra_refresh=0 / rc_lookahead=25 / rc=2pass / mbtree=1 / bitrate=660 / ratetol=1.0 / qcomp=0.60 / qpmin=0 / qpmax=69 / qpstep=4 / cplxblur=20.0 / qblur=0.5 / ip_ratio=1.40 / aq=1:1.00
Аудио
Идентификатор : 2
Формат : AAC
Формат/Информация : Advanced Audio Codec
Профиль формата : LC
Идентификатор кодека : 40
Продолжительность : 1 ч. 46 м.
Duration_LastFrame : -20 мс.
Вид битрейта : Переменный
Битрейт : 152 Кбит/сек
Максимальный битрейт : 160 Кбит/сек
Каналы : 2 канала
Расположение каналов : Front: L R
Частота : 44,1 КГц
Метод сжатия : С потерями
Размер потока : 115 Мбайт (19%)

Скриншот c названием фильма

Скриншоты



If your ratio falls below 0.3, you will not be able to download Torrents! More about the rating.

[erzsebet.pl].t984.torrent
Torrent: Registered [ 2017-12-02 17:26 ] · C7110327E295DAC17441B8A417F7DCF7F68CA661

Download .torrent

Download

13 KB

Status: checked
Completed: 16 times
Size: 620 MB
terms.php
[Profile] [PM]
Display posts:    
Reply to topic

Current time is: 21-Jan 16:49

All times are UTC ± 0



You cannot post new topics in this forum
You cannot reply to topics in this forum
You cannot edit your posts in this forum
You cannot delete your posts in this forum
You cannot vote in polls in this forum
You cannot attach files in this forum
You can download files in this forum