Пещера / The Cave (Брюс Хант / Bruce Hunt) [2005, США, Германия, ужасы, триллер, приключения, BDRip] AVO (Сергей Визгунов) + Original Eng + Sub (Rus, Eng)

Reply to topic
DL-List and Torrent activity
Size:  1.46 GB   |    Registered:  3 years 1 month   |    Completed:  16 times

Seeder not seen: Never

 
   
 
 
Author Message

erzsebet.org ®

Longevity: 3 years 1 month

Posts: 47596

Post 02-Dec-2017 17:25

[Quote]

Пещера / The Cave
Страна: США, Германия
Жанр: ужасы, триллер, приключения
Год выпуска: 2005
Продолжительность: 01:37:09
Перевод: Авторский (одноголосый закадровый) Сергей Визгунов
Субтитры: Русские / Английские (отдельно)
Оригинальная аудиодорожка: Английский
Режиссер: Брюс Хант / Bruce Hunt
В ролях: Коул Хаузер, Эдди Сибриан, Моррис Честнат, Лина Хиди, Пайпер Перабо, Рик Раванелло, Дэниэл Дэ Ким, Киран Дарси-Смит, Марчел Юреш, Влад Радеску..
Описание: Когда-то в румынской части Карпат за развалинами древней церквушки был найден вход в загадочный грот. Местные ученые-биологи спустились туда и исчезли. Через много лет туда была отправлена еще одна экспедиция, в которую вошли опытные спелеологи и водолазы. Эту группу людей возглавил Джек Макаллистер. Вместе с ним в грот спустились его брат Тайлер, биолог Кэтрин Джэннингс, оператор Алекс Ким, а также Чарли, Бриггс, Строуд и доктор Николае. Как только ученые спустилась вниз, практически сразу произошел неожиданный обвал. Теперь исследователям необходимо искать другой выход из этого подземного лабиринта. Довольно скоро выяснилось, что в этой тьме живут чудовищные монстры. Они стали нападать на людей и съедать их. Кроме того в пещере живут паразиты неизвестного происхождения. Они, попадая в организм людей, превращают их в бездушных кровожадных чудовищ, причем мутация происходит очень быстро. Люди погибают или становятся зараженными. Оставшиеся исследователи для них тоже только пища. Выбраться на поверхность, конечно, смогут далеко не все, но даже если люди и выживут, то могут принести в большой мир страшную инфекцию.
Сэмпл: http://multi-up.com/1166995
Качество видео: BDRip (Исходник The.Cave.2005.BDRemux.1080p.mkv)
Формат видео: AVI
Видео: XviD 73, 720x304, (2,35:1), 23,976 fps, 1748 Кбит/с, 8 бит, 0.33 bit/pixel
Аудио: Русский (АС3, 2 ch (Front: L R), 48,0 KHz, 192 Kbps)
Аудио 2: Английский (АС3, 2 ch (Front: L R), 48,0 KHz, 192 Kbps)

MediaInfo

Общее
Полное имя : F:\Видеофильмы\В и д е о\Пещера_(ужасы, приключения 2005 год)_Leonard_Lew\Пещера_(ужасы, приключения 2005 год)_Leonard_Lew.avi
Формат : AVI
Формат/Информация : Audio Video Interleave
Размер файла : 1,46 Гбайт
Продолжительность : 1 ч. 37 м.
Общий поток : 2146 Кбит/сек
Программа кодирования : VirtualDubMod 1.5.10.2 (build 2540/release)
Библиотека кодирования : VirtualDubMod build 2540/release
Видео
Идентификатор : 0
Формат : MPEG-4 Visual
Профиль формата : Advanced [email protected]
Параметр BVOP формата : 2
Параметр QPel формата : Нет
Параметр GMC формата : Без точки перехода
Параметр матрицы формата : Выборочная
Идентификатор кодека : XVID
Идентификатор кодека/Подсказка : XviD
Продолжительность : 1 ч. 37 м.
Битрейт : 1748 Кбит/сек
Ширина : 720 пикселей
Высота : 304 пикселя
Соотношение сторон : 2,35:1
Частота кадров : 23,976 (23976/1000) кадра/сек
Цветовое пространство : YUV
Субдискретизация насыщенности : 4:2:0
Битовая глубина : 8 бит
Тип развёртки : Прогрессивная
Метод сжатия : С потерями
Бит/(Пиксели*Кадры) : 0.333
Размер потока : 1,19 Гбайт (81%)
Библиотека кодирования : XviD 73
Аудио #1
Идентификатор : 1
Формат : AC-3
Формат/Информация : Audio Coding 3
Расширение режима : CM (complete main)
Параметр Endianness формата : Big
Идентификатор кодека : 2000
Продолжительность : 1 ч. 37 м.
Вид битрейта : Постоянный
Битрейт : 192 Кбит/сек
Каналы : 2 канала
Расположение каналов : Front: L R
Частота : 48,0 КГц
Частота кадров : 31,250 кадров/сек (1536 spf)
Метод сжатия : С потерями
Размер потока : 133 Мбайт (9%)
Выравнивание : Разделение по промежуткам
Продолжительность промежутка : 42 мс. (1,00 видеокадр)
Время предзагрузки промежутка : 500 мс.
Аудио #2
Идентификатор : 2
Формат : AC-3
Формат/Информация : Audio Coding 3
Расширение режима : CM (complete main)
Параметр Endianness формата : Big
Идентификатор кодека : 2000
Продолжительность : 1 ч. 37 м.
Вид битрейта : Постоянный
Битрейт : 192 Кбит/сек
Каналы : 2 канала
Расположение каналов : Front: L R
Частота : 48,0 КГц
Частота кадров : 31,250 кадров/сек (1536 spf)
Метод сжатия : С потерями
Размер потока : 133 Мбайт (9%)
Выравнивание : Разделение по промежуткам
Продолжительность промежутка : 42 мс. (1,00 видеокадр)
Время предзагрузки промежутка : 500 мс.

Скриншот c названием фильма

Скриншоты

If your ratio falls below 0.3, you will not be able to download Torrents! More about the rating.

[erzsebet.pl].t985.torrent
Torrent: Registered [ 2017-12-02 17:26 ] · F1A5E53430F7B584A2A6AAF6B42B677A5C44D7C4

Download .torrent

Download

15 KB

Status: checked
Completed: 16 times
Size: 1.46 GB
terms.php
[Profile] [PM]
Display posts:    
Reply to topic

Current time is: 22-Jan 22:59

All times are UTC ± 0



You cannot post new topics in this forum
You cannot reply to topics in this forum
You cannot edit your posts in this forum
You cannot delete your posts in this forum
You cannot vote in polls in this forum
You cannot attach files in this forum
You can download files in this forum