Ничего себе поездочка / Joy Ride (Джон Дал / John Dahl) [2001, США, триллер, драма, детектив, WEBRip-AVC] [Open Matte] 2x MVO (R5, Россия) + Sub Rus Eng + Original Eng

Reply to topic
DL-List and Torrent activity
Size:  2.18 GB   |    Registered:  3 years 1 month   |    Completed:  16 times

Seeder not seen: Never

 
   
 
 
Author Message

erzsebet.org ®

Longevity: 3 years 1 month

Posts: 47596

Post 02-Dec-2017 17:25

[Quote]

Ничего себе поездочка / Joy Ride / Open Matte
Страна: США
Жанр: триллер, драма, детектив
Год выпуска: 2001
Продолжительность: 01:37:09
Перевод: Профессиональный (многоголосый закадровый) R5
Перевод 2: Профессиональный (многоголосый закадровый) Россия
Субтитры: русские, английские
Оригинальная аудиодорожка: английский
Режиссер: Джон Дал / John Dahl
В ролях: Стив Зан, Пол Уокер, Лили Собески, Джессика Боуман, Стюарт Стоун, Бейзил Уоллес, Брайан Лекнер, Мэри Уиклифф, МакКензи Саттертвейт, Делл Йонт
Описание: Темная, пустынная лента шоссе змеей протянулась по безлюдному ландшафту средней Америки. Эта дорога живет своей жизнью, по своим правилам и законам, и если ты осмелился совершить по ней путешествие, то неплохо бы эти законы выучить наизусть.
Герои фильма попадают в жуткую переделку, когда Фулер уговаривает младшего брата Льюиса установить в машине старый радиопередатчик.
Для него это лишь «клевая» антикварная диковинка, с помощью которой можно позволить себе небольшой розыгрыш. Теперь ребятам придется своей кровью расплачиваться за поступок, на который способен каждый из нас…
Доп. информация: Запись с онлайн-кинотеатра
Различия BD и WEBRip - разное наполнение кадра - 16:9 (1.78:1) -> http://screenshotcomparison.com/comparison/116328
Фильмы в Fullscreen (4:3) и Open Matte (16:9) форматах
Сэмпл: http://multi-up.com/1166798
Качество видео: WEBRip-AVC [Joy Ride (2001) WEB-DL 1080p [Open Matte] -BLUEBIRD.mkv]
Формат видео: MKV
Видео: MPEG-4 AVC/H.264 / 2127 kbps / 1024x576 / 23.976 fps
Аудио 1: MVO R5 (Rus) / AC3 / 6 ch / 448 kbps / 48 kHz
Аудио 2: MVO Россия (Rus) / AC3 / 2 ch / 192 kbps / 48 kHz
Аудио 3: Original (Eng) / AC3 / 6 ch / 448 kbps / 48 kHz
Формат субтитров: softsub (SRT)
Доп. информация о субтитрах: Русские (2x full), Английские (2x full)

Log

x264 [info]: frame I:1357 Avg QP:13.39 size: 62900
x264 [info]: frame P:34325 Avg QP:16.58 size: 21624
x264 [info]: frame B:104038 Avg QP:18.92 size: 6934

MediaInfo

General
Unique ID : 205814885835878651657914751315555913968 (0x9AD68152600D8FF9B33114C9740C10F0)
Complete name : J:\Torrents\Готовые релизы\Ничего себе поездочка (2001) WEBRip-AVC [Open Matte].mkv
Format : Matroska
Format version : Version 2
File size : 2.18 GiB
Duration : 1 h 37 min
Overall bit rate : 3 216 kb/s
Movie name : Ничего себе поездочка / Joy Ride (2001) [Open Matte]
Encoded date : UTC 2017-08-01 16:52:00
Writing application : mkvmerge v5.5.0 ('Healer') built on Apr 24 2012 23:47:03
Writing library : libebml v1.2.3 + libmatroska v1.3.0
Video
ID : 1
Format : AVC
Format/Info : Advanced Video Codec
Format profile : [email protected]
Format settings, CABAC : Yes
Format settings, ReFrames : 8 frames
Codec ID : V_MPEG4/ISO/AVC
Duration : 1 h 37 min
Bit rate : 2 127 kb/s
Width : 1 024 pixels
Height : 576 pixels
Display aspect ratio : 16:9
Frame rate mode : Constant
Frame rate : 23.976 (24000/1001) FPS
Color space : YUV
Chroma subsampling : 4:2:0
Bit depth : 8 bits
Scan type : Progressive
Bits/(Pixel*Frame) : 0.150
Stream size : 1.40 GiB (64%)
Title : WEBRip (AVC) / MPEG-4 AVC/H.264 / 2127 kbps / 1024x576 / 23.976 fps
Writing library : x264 core 146 r2538 121396c
Encoding settings : cabac=1 / ref=8 / deblock=1:0:0 / analyse=0x3:0x113 / me=umh / subme=10 / psy=1 / psy_rd=1.00:0.00 / mixed_ref=1 / me_range=32 / chroma_me=1 / trellis=2 / 8x8dct=1 / cqm=0 / deadzone=21,11 / fast_pskip=0 / chroma_qp_offset=-2 / threads=6 / lookahead_threads=1 / sliced_threads=0 / nr=0 / decimate=1 / interlaced=0 / bluray_compat=0 / constrained_intra=0 / bframes=9 / b_pyramid=2 / b_adapt=2 / b_bias=0 / direct=3 / weightb=1 / open_gop=0 / weightp=2 / keyint=250 / keyint_min=23 / scenecut=40 / intra_refresh=0 / rc_lookahead=50 / rc=2pass / mbtree=1 / bitrate=2127 / ratetol=1.0 / qcomp=0.60 / qpmin=0 / qpmax=69 / qpstep=4 / cplxblur=20.0 / qblur=0.5 / vbv_maxrate=14000 / vbv_bufsize=14000 / nal_hrd=none / filler=0 / ip_ratio=1.40 / aq=1:1.00
Language : English
Default : Yes
Forced : Yes
Audio #1
ID : 2
Format : AC-3
Format/Info : Audio Coding 3
Mode extension : CM (complete main)
Format settings, Endianness : Big
Codec ID : A_AC3
Duration : 1 h 37 min
Bit rate mode : Constant
Bit rate : 448 kb/s
Channel(s) : 6 channels
Channel positions : Front: L C R, Side: L R, LFE
Sampling rate : 48.0 kHz
Frame rate : 31.250 FPS (1536 spf)
Bit depth : 16 bits
Compression mode : Lossy
Stream size : 311 MiB (14%)
Title : MVO R5 (Rus) / AC3 / 6 ch / 448 kbps / 48 kHz
Language : Russian
Default : Yes
Forced : Yes
Audio #2
ID : 3
Format : AC-3
Format/Info : Audio Coding 3
Mode extension : CM (complete main)
Format settings, Endianness : Big
Codec ID : A_AC3
Duration : 1 h 37 min
Bit rate mode : Constant
Bit rate : 192 kb/s
Channel(s) : 2 channels
Channel positions : Front: L R
Sampling rate : 48.0 kHz
Frame rate : 31.250 FPS (1536 spf)
Bit depth : 16 bits
Compression mode : Lossy
Stream size : 133 MiB (6%)
Title : MVO Россия (Rus) / AC3 / 2 ch / 192 kbps / 48 kHz
Language : Russian
Default : No
Forced : No
Audio #3
ID : 4
Format : AC-3
Format/Info : Audio Coding 3
Mode extension : CM (complete main)
Format settings, Endianness : Big
Codec ID : A_AC3
Duration : 1 h 37 min
Bit rate mode : Constant
Bit rate : 448 kb/s
Channel(s) : 6 channels
Channel positions : Front: L C R, Side: L R, LFE
Sampling rate : 48.0 kHz
Frame rate : 31.250 FPS (1536 spf)
Bit depth : 16 bits
Compression mode : Lossy
Stream size : 311 MiB (14%)
Title : Original (Eng) / AC3 / 6 ch / 448 kbps / 48 kHz
Language : English
Default : No
Forced : No
Text #1
ID : 5
Format : UTF-8
Codec ID : S_TEXT/UTF8
Codec ID/Info : UTF-8 Plain Text
Title : Full 1 (Rus) / S_TEXT/UTF8
Language : Russian
Default : No
Forced : No
Text #2
ID : 6
Format : UTF-8
Codec ID : S_TEXT/UTF8
Codec ID/Info : UTF-8 Plain Text
Title : Full 2 (Rus) / S_TEXT/UTF8
Language : Russian
Default : No
Forced : No
Text #3
ID : 7
Format : UTF-8
Codec ID : S_TEXT/UTF8
Codec ID/Info : UTF-8 Plain Text
Title : Full (Eng) / S_TEXT/UTF8
Language : English
Default : No
Forced : No
Text #4
ID : 8
Format : UTF-8
Codec ID : S_TEXT/UTF8
Codec ID/Info : UTF-8 Plain Text
Title : Full [SDH] (Eng) / S_TEXT/UTF8
Language : English
Default : No
Forced : No

Скриншот c названием фильма

Скриншоты

If your ratio falls below 0.3, you will not be able to download Torrents! More about the rating.

[erzsebet.pl].t987.torrent
Torrent: Registered [ 2017-12-02 17:26 ] · 7EA7A70B724506D4DF0E71123C7B7A3D97C6E48E

Download .torrent

Download

12 KB

Status: checked
Completed: 16 times
Size: 2.18 GB
terms.php
[Profile] [PM]
Display posts:    
Reply to topic

Current time is: 20-Jan 06:46

All times are UTC ± 0



You cannot post new topics in this forum
You cannot reply to topics in this forum
You cannot edit your posts in this forum
You cannot delete your posts in this forum
You cannot vote in polls in this forum
You cannot attach files in this forum
You can download files in this forum