Принц и я / The Prince & Me (Марта Кулидж / Martha Coolidge) [2004, США, Чехия, лирическая комедия, DVB] DVO (Студия Акцент) + Original

DL-List and Torrent activity
Size:  2.01 GB   |    Registered:  3 years 1 month   |    Completed:  16 times
Seeders:  4  
 
   
 
 

erzsebet.org ®

Longevity:
3 years 1 month
Posts:
47596

[Quote] 

Принц и я
The Prince & Me- Страна: США, Чехия
Жанр: лирическая комедия
Год выпуска: 2004
Продолжительность: 01:46:10
Перевод: Профессиональный (двухголосый закадровый) Студия "Акцент" по заказу Kino Polska
Субтитры: нет
Оригинальная аудиодорожка: английский/немецкий/датский
Режиссер: Марта Кулидж / Martha Coolidge
В ролях: Джулия Стайлс / Julia Stiles (Paige Morgan), Люк Мэбли / Luke Mably (Eddie), Бен Миллер / Ben Miller (Soren), Джеймс Фокс / James Fox (King Haraald), Миранда Ричардсон / Miranda Richardson (Queen Rosalind), Альберта Уотсон / Alberta Watson (Amy Morgan)
Описание: В мирном Датском королевстве царит полный беспорядок. Виной тому наследник престола по имени Эдвард, который одержим спортивными машинами и любит смотреть видеокассеты неприличного содержания. Однажды в руки героя попала запись вечеринки девушек из Висконсина. Благодаря кассете принц Эдвард понял, что большинство студенток в Штатах хороши собой и многие из них готовы раздеться по первому требованию. Поссорившись с родителями, наследник датской короны решил отправиться в американский колледж простым студентом. Там он знакомится с прекрасной девушкой Пэйдж Морган и между молодыми людьми вспыхивает сильное чувство. И тут оказывается, что юноша не кто иной, как наследный принц Дании Эдвард Вольдемар. Принц готов предложить студентке руку и сердце. Но готова ли та стать принцессой?
Доп. информация: Intelsat 15 (85.0°E) Filmbox DVB-S
Номинация Teen Choice Awards 2004 в категории "Лучшая актриса" (Julia Stiles).
Качество видео: DVB
Формат видео: MKV
Видео: MPEG Video 2, [email protected] (16:9), 25 fps, ~2453 kbps avg, 0.237 bit/pixel
Аудио 1: MPEG Audio 2, 2 ch, 48 kHz, 128 kbps - русский
Аудио 2: MPEG Audio 2, 2 ch, 48 kHz, 128 kbps - английский/немецкий/датский

MediaInfo

General
Unique ID : 211927983907235481662170400738266495398 (0x9F6FD853A0AB3CB48A6C1FBA3C0EB9A6)
Complete name : [apreder]The_Prince_and_Me(2004)DVB.mkv
Format : Matroska
Format version : Version 2
File size : 2.01 GiB
Duration : 1 h 46 min
Overall bit rate mode : Variable
Overall bit rate : 2 715 kb/s
Movie name : The Prince & Me
Released date : 2004-07-01
Encoded date : UTC 2017-09-01 11:24:38
Writing application : mkvmerge v15.0.0 ('Duel with the Devil') 64-bit
Writing library : libebml v1.3.5 + libmatroska v1.4.5
Cover : Yes
Attachments : cover.jpg / small_cover.jpg
ACTOR : Julia Stiles, Luke Mably, Miranda Richardson
DIRECTOR : Martha Coolidge
GENRE : Comedy, Family, Romance
IMDB : tt0337697
KEYWORDS : erzsebet.org
LAW_RATING : 16+
Video
ID : 1
Format : MPEG Video
Format version : Version 2
Format profile : [email protected]
Format settings, BVOP : Yes
Format settings, Matrix : Custom
Format settings, GOP : M=4, N=12
Format settings, picture structure : Frame
Codec ID : V_MPEG2
Codec ID/Info : MPEG 1 or 2 Video
Duration : 1 h 46 min
Bit rate mode : Variable
Bit rate : 2 453 kb/s
Maximum bit rate : 10 000 kb/s
Width : 720 pixels
Height : 576 pixels
Display aspect ratio : 16:9
Frame rate mode : Constant
Frame rate : 25.000 FPS
Standard : PAL
Color space : YUV
Chroma subsampling : 4:2:0
Bit depth : 8 bits
Scan type : Interlaced
Scan order : Top Field First
Compression mode : Lossy
Bits/(Pixel*Frame) : 0.237
Time code of first frame : 00:00:00:00
Time code source : Group of pictures header
GOP, Open/Closed : Open
Stream size : 1.82 GiB (90%)
Default : Yes
Forced : No
Audio #1
ID : 2
Format : MPEG Audio
Format version : Version 1
Format profile : Layer 2
Codec ID : A_MPEG/L2
Codec ID/Hint : MP2
Duration : 1 h 46 min
Bit rate mode : Constant
Bit rate : 128 kb/s
Channel(s) : 2 channels
Sampling rate : 48.0 kHz
Frame rate : 41.667 FPS (1152 SPF)
Compression mode : Lossy
Stream size : 97.2 MiB (5%)
Language : Russian
Default : Yes
Forced : No
Audio #2
ID : 3
Format : MPEG Audio
Format version : Version 1
Format profile : Layer 2
Codec ID : A_MPEG/L2
Codec ID/Hint : MP2
Duration : 1 h 46 min
Bit rate mode : Constant
Bit rate : 128 kb/s
Channel(s) : 2 channels
Sampling rate : 48.0 kHz
Frame rate : 41.667 FPS (1152 SPF)
Compression mode : Lossy
Stream size : 97.2 MiB (5%)
Language : English
Default : No
Forced : No

Скриншот c названием фильма

Скриншоты


Резервные скриншоты


- [3'851]

If your ratio falls below 0.3, you will not be able to download Torrents! More about the rating.

[erzsebet.pl].t989.torrent
Torrent: Registered   [ 2017-12-02 17:26 ]

Download .torrent

Download

21 KB

Status: checked
Completed: 16 times
Size: 2.01 GB
terms.php

#1

02-Dec-2017 17:25

[Profile]  [PM] 
Display posts:    

You cannot post new topics in this forum
You cannot reply to topics in this forum
You cannot edit your posts in this forum
You cannot delete your posts in this forum
You cannot vote in polls in this forum
You cannot attach files in this forum
You can download files in this forum
User agreement
For copyright holders
Advertise on this site

Скачайте на халяву через торрент на трекере erzsebet.pl

!ATTENTION!
The site does not give electronic versions of products, and is engaged only in a collecting and cataloguing of the references sent and published at a forum by our readers. If you are the legal owner of any submitted material and do not wish that the reference to it was in our catalogue, contact us and we shall immediately remove her. Files for an exchange on tracker are given by users of a site, and the administration does not bear the responsibility for their maintenance. The request to not fill in the files protected by copyrights, and also files of the illegal maintenance!