Исполнитель желаний 3: Дьяволский камень / Камень дьявола / Wishmaster 3: Beyond the Gates of Hell (Крис Энджел / Chris Angel) [2001, Канада, Великобритания, ужасы, фэнтези, WEB-DLRip] DVO (Екатеринбург Арт)

Reply to topic
DL-List and Torrent activity
Size:  1.44 GB   |    Registered:  3 years 1 month   |    Completed:  16 times

Seeder not seen: Never

 
   
 
 
Author Message

erzsebet.org ®

Longevity: 3 years 1 month

Posts: 47596

Post 02-Dec-2017 17:25

[Quote]

Исполнитель желаний 3: Дьяволский камень / Камень дьявола / Wishmaster 3: Beyond the Gates of Hell-В этот раз зло пришло за тобой.
Фантастический ужастик со спецэффектами от команды, получившей Оскар за работу над "Бездной".
- Год выпуска: 2001
Страна: Канада, Великобритания
Жанр: ужасы, фэнтези
Продолжительность: 01:32:20
Перевод: Профессиональный (двухголосый закадровый) - Екатеринбург Арт
Субтитры: нет
Режиссер: Крис Энджел / Chris Angel
В ролях: Джейсон Коннери / Professor Joel Barash, А.Дж Кук / Diana Collins, Тобиас Мелер / St. Michael the Archangel, Луизетт Гейсс / Katie York, Аарон Смолински / Billy Matthews, Даниэлла Евангелиста / Anne, Эммануэль Вожье / Elinor Smith, Джон Новак / The Djinn-Мировая премьера: 23 октября 2001-Описание: Исследуя таинственный старинный артефакт, известный на протяжении веков под названием "дьявольский камень", студентка Дайана случайно освободила заточенного в нем бессмертного Джинна. И в соответствии с древним пророчеством это ужасное порождение ада, наделенное даром исполнять людские желания ада, стремится погрузить Землю в вечную тьму и хаос. Теперь только три желания Дайаны отделяют человечество от полного уничтожения, и от нее зависит будущее всей земной цивилизации. Удастся ли ей остановить Джинна, пока этот могущественный демон ада не убил всех ее друзей и не пришел за ней самой? Или же Дайана окажется беспомощной перед дикой разрушительной силой зла, направленной против мира людей?-Огромная благодарность:
Pigy - исходник видео (WEB-DL 720p).
RoxMarty - личная оцифровка перевода со своей лицензионной видеокассеты от видео-компании "Екатеринбург Арт".
JUSTKANT - синхронизация перевода.-Данный перевод на трекере появляется впервые.-На русский язык фильм озвучен по заказу компании Екатеринбург Арт.
Текст читают Владимир Вихров и Ольга Голованова.-
Рейтинг

MPAA: R - Лицам до 17 лет обязательно присутствие взрослого.-Качество видео: WEB-DLRip
Формат видео: AVI -> //Сэмпл//
Видео: XviD, 720x400 (16:9), 23.976 fps, 2030 kbps
Аудио:
1 - 48 khz, AC3 Dolby Digital, 2/0 (L,R) ch, ~192 kbps [Екатеринбург Арт] VHSRip

MediaInfo

General
Complete name : D:\Исполнитель желаний 3. Дьявольский камень (Екатеринбург Арт).avi
Format : AVI
Format/Info : Audio Video Interleave
File size : 1.44 GiB
Duration : 1 h 32 min
Overall bit rate : 2 232 kb/s
Movie name : Исполнитель желаний 3: Дьявольский камень / Wishmaster 3: Beyond the Gates of Hell (Екатеринбург Арт)
Director : JUSTKANT
Writing application : VirtualDubMod 1.5.10.3 (build 2550/release)
Copyright : На русский язык фильм озвучен по заказу компании "Екатеринбург Арт"
Comment : Качество звука: VHSRip (RoxMarty)
Video
ID : 0
Format : MPEG-4 Visual
Format profile : Advanced [email protected]
Format settings, BVOP : 1
Format settings, QPel : No
Format settings, GMC : No warppoints
Format settings, Matrix : Custom
Codec ID : XVID
Codec ID/Hint : XviD
Duration : 1 h 32 min
Bit rate : 2 030 kb/s
Width : 720 pixels
Height : 400 pixels
Display aspect ratio : 16:9
Frame rate : 23.976 (24000/1001) FPS
Color space : YUV
Chroma subsampling : 4:2:0
Bit depth : 8 bits
Scan type : Progressive
Compression mode : Lossy
Bits/(Pixel*Frame) : 0.294
Stream size : 1.31 GiB (91%)
Writing library : XviD 73
Audio
ID : 1
Format : AC-3
Format/Info : Audio Coding 3
Format settings, Endianness : Big
Codec ID : 2000
Duration : 1 h 32 min
Bit rate mode : Constant
Bit rate : 192 kb/s
Channel(s) : 2 channels
Channel positions : Front: L R
Sampling rate : 48.0 kHz
Frame rate : 31.250 FPS (1536 SPF)
Bit depth : 16 bits
Compression mode : Lossy
Stream size : 127 MiB (9%)
Alignment : Split accross interleaves
Interleave, duration : 42 ms (1.00 video frame)
Interleave, preload duratio : 500 ms
Title : Екатеринбург Арт: Владимир Вихров и Ольга Голованова
Service kind : Complete Main

Скриншот c названием фильма

Скриншоты

If your ratio falls below 0.3, you will not be able to download Torrents! More about the rating.

[erzsebet.pl].t991.torrent
Torrent: Registered [ 2017-12-02 17:26 ] · 64FD1C043E1E97020A3EB14235B58A8947F64A82

Download .torrent

Download

15 KB

Status: checked
Completed: 16 times
Size: 1.44 GB
terms.php
[Profile] [PM]
Display posts:    
Reply to topic

Current time is: 22-Jan 21:23

All times are UTC ± 0



You cannot post new topics in this forum
You cannot reply to topics in this forum
You cannot edit your posts in this forum
You cannot delete your posts in this forum
You cannot vote in polls in this forum
You cannot attach files in this forum
You can download files in this forum