Селеста в большом городе / Celeste in the City (Ларри Шоу / Larry Shaw) [2004, США, комедия, мелодрама, SATRip] (локализованный видеоряд) MVO (Кириллица)

Reply to topic
DL-List and Torrent activity
Size:  1.37 GB   |    Registered:  3 years 1 month   |    Completed:  16 times

Seeder not seen: Never

 
   
 
 
Author Message

erzsebet.org ®

Longevity: 3 years 1 month

Posts: 47596

Post 02-Dec-2017 17:25

[Quote]

Селеста в большом городе / Celeste in the City
Страна: США
Жанр: комедия, мелодрама
Год выпуска: 2004
Продолжительность: 1:23:25
Перевод: Профессиональный (многоголосый закадровый) Кириллица
Субтитры: нет
Режиссер: Ларри Шоу / Larry Shaw
В ролях: Маджандра Делфино, Николас Брендон, Итэн Эмбри, Майкл Бойсверт, Сэди ЛеБланк, Джэми Робинсон, Джеффри Паунсетт, Дебби Гибсон, Аллегра Фултон, Яная Стефенс
Описание: Начинающую провинциальную журналистку большая столичная газета вдруг приглашает сразу на должность помощника редактора, да ещё и со слов пятых лиц новое жильё настоящий пентхаус...
Дополнительно: особая благодарность miha2154 за запись исходника
Сэмпл: http://multi-up.com/1166896

Качество видео: SATRip
Формат видео: AVI
Видео: XviD, 688x384, 1.792:1, 25 fps, 2145 kbps, 0.325 bpp
Аудио: AC3, 48 kHz, 192 kbps, stereo

MediaInfo

Complete name : P:\Селеста в большом городе (2004) SATRip.avi
Format : AVI
Format/Info : Audio Video Interleave
File size : 1.37 GiB
Duration : 1h 23mn
Overall bit rate : 2 347 Kbps
Writing application : VirtualDubMod 1.5.10.2 (build 2540/release)
Writing library : VirtualDubMod build 2540/release
Video
ID : 0
Format : MPEG-4 Visual
Format profile : Advanced [email protected]
Format settings, BVOP : 2
Format settings, QPel : No
Format settings, GMC : No warppoints
Format settings, Matrix : Default (H.263)
Codec ID : XVID
Codec ID/Hint : XviD
Duration : 1h 23mn
Bit rate : 2 145 Kbps
Width : 688 pixels
Height : 384 pixels
Display aspect ratio : 16:9
Frame rate : 25.000 fps
Color space : YUV
Chroma subsampling : 4:2:0
Bit depth : 8 bits
Scan type : Progressive
Compression mode : Lossy
Bits/(Pixel*Frame) : 0.325
Stream size : 1.25 GiB (91%)
Writing library : XviD 1.1.2 (UTC 2006-11-01)
Audio
ID : 1
Format : AC-3
Format/Info : Audio Coding 3
Mode extension : CM (complete main)
Format settings, Endianness : Big
Codec ID : 2000
Duration : 1h 23mn
Bit rate mode : Constant
Bit rate : 192 Kbps
Channel(s) : 2 channels
Channel positions : Front: L R
Sampling rate : 48.0 KHz
Bit depth : 16 bits
Compression mode : Lossy
Stream size : 115 MiB (8%)
Alignment : Split accross interleaves
Interleave, duration : 40 ms (1.00 video frame)
Interleave, preload duration : 500 ms

Скриншот c названием фильма

Скриншоты

If your ratio falls below 0.3, you will not be able to download Torrents! More about the rating.

[erzsebet.pl].t992.torrent
Torrent: Registered [ 2017-12-02 17:26 ] · 3ECA3BF0F08F46ECC0B6312953996FBC58E91C55

Download .torrent

Download

14 KB

Status: checked
Completed: 16 times
Size: 1.37 GB
terms.php
[Profile] [PM]
Display posts:    
Reply to topic

Current time is: 16-Jan 18:50

All times are UTC ± 0



You cannot post new topics in this forum
You cannot reply to topics in this forum
You cannot edit your posts in this forum
You cannot delete your posts in this forum
You cannot vote in polls in this forum
You cannot attach files in this forum
You can download files in this forum